[C-Drama] Phong Khởi Lạc Dương - Luoyang IQ 1080p WEB-DL ACC H.264

Thảo luận trong 'Phim bộ - Series' bắt đầu bởi Anh YAM, 1/12/21.

  1. Anh YAM

    Anh YAM Uploader

    Tham gia ngày:
    5/1/19
    Bài viết:
    9,298
    Đã được cảm ơn:
    173,401
    Giới tính:
    Nam
    Luoyang IQ 1080p & 2160p WEB-DL ACC H.264 & H.265

    Phong Khởi Lạc Dương


    [​IMG]

    【 Info】


    --------------------------------------------------------------

    ⭐ Link: https://mydramalist.com/59017-luo-yang
    Phong Khởi Lạc Dương kể về hàng loạt câu chuyện những người xuất thân từ giai cấp, tầng lớp khác nhau gây ra trong quá trình điều tra một vụ án chưa giải quyết. Cao Bỉnh Chúc (Hoàng Hiên thủ vai), một phó soái bất lương trà trộn trong tầng lớp thấp nhất Lạc Dương, bất ngờ bị cuốn vào vụ án, trở thành người bị tình nghi. Trong khi tự mình chứng minh vô tội, chàng gặp gỡ Bách Lý Hoằng Nghị (Vương Nhất Bác thủ vai), một người thiếu niên truy tìm sự thật cha bị đầu độc qua đời. Hai người hợp tác với nhau, cùng điều tra vụ án. Nội vệ Tư Nguyệt (Tống Thiến thủ vai) sinh ra trong nhà quan lại, nàng điều tra và tiếp cận với Cao Bỉnh Chúc vừa võ nghệ cao cường vừa đầu óc tinh nhanh để tìm lấy thư mật báo liên quan tới vụ án. Hai người ghét nhau bởi tầng lớp của họ khác hẳn lại không thể không cùng hành động. Theo điều tra càng sâu, họ phát hiện một âm mưu động trời có thể phá hủy thần đô, khiến Lạc Thủy nhuốm máu.







    ****************************************



    【 Media Info 】

    PHP:
    General
    Filename
    ........: Luoyang EP01 IQ 1080p WEB-DL ACC H.264.mp4
    Container
    .......: MPEG-4
    Duration
    ........: 45 min 9 s
    Size
    ............: 725 MiB

    Video
    Codec
    ...........: AVC High L4 8 bits
    Type
    ............: Progressive
    Resolution
    ......: 1920x800
    Aspect ratio
    ....: 2.40:1
    Bit rate
    ........: 2 048 kb/s
    Frame rate
    ......: 25.000 FPS

    Audio
    Format
    ..........: Advanced Audio Codec Low Complexity
    Channels
    ........: 2 channels
    Bit rate
    ........: 192 kb/s
    Subtitles
    Language
    ........: Vietnames and More

    General
    Complete name : Luoyang EP01 IQ 1080p WEB-DL ACC H.264.mp4
    Format : MPEG-4
    Format profile : Base Media
    Codec ID : isom (isom/iso2/avc1/mp41)
    File size : 725 MiB
    Duration : 45 min 9 s
    Overall bit rate mode : Variable
    Overall bit rate : 2 245 kb/s
    Writing application : Lavf58.22.100

    Video
    ID : 1
    Format : AVC
    Format/Info : Advanced Video Codec
    Format profile : [email protected]
    Format settings : CABAC / 3 Ref Frames
    Format settings, CABAC : Yes
    Format settings, Reference frames : 3 frames
    Codec ID : avc1
    Codec ID/Info : Advanced Video Coding
    Duration : 45 min 9 s
    Bit rate : 2 048 kb/s
    Width : 1 920 pixels
    Height : 800 pixels
    Display aspect ratio : 2.40:1
    Frame rate mode : Constant
    Frame rate : 25.000 FPS
    Color space : YUV
    Chroma subsampling : 4:2:0
    Bit depth : 8 bits
    Scan type : Progressive
    Bits/(Pixel*Frame) : 0.053
    Stream size : 661 MiB (91%)
    Writing library : qiyi.com vtc-test
    Color range : Limited
    Color primaries : BT.709
    Transfer characteristics : BT.709
    Matrix coefficients : BT.709
    Codec configuration box : avcC

    Audio
    ID : 2
    Format : AAC LC
    Format/Info : Advanced Audio Codec Low Complexity
    Codec ID : 2 / 40 / mp4a-40-2
    Duration : 45 min 9 s
    Bit rate mode : Constant
    Bit rate : 192 kb/s
    Channel(s) : 2 channels
    Channel layout : L R
    Sampling rate : 44.1 kHz
    Frame rate : 43.066 FPS (1024 SPF)
    Compression mode : Lossy
    Stream size : 61.3 MiB (8%)
    Default : Yes
    Alternate group : 1

    Text #1
    ID : 3
    Format : Timed Text
    Muxing mode : sbtl
    Codec ID : tx3g
    Duration : 42 min 25 s
    Bit rate mode : Variable
    Bit rate : 85 b/s
    Stream size : 26.3 KiB (0%)
    Title : Vietnamese
    Default : Yes
    Forced : No
    Alternate group : 3

    Text #2
    ID : 4
    Format : Timed Text
    Muxing mode : sbtl
    Codec ID : tx3g
    Duration : 42 min 25 s
    Bit rate mode : Variable
    Bit rate : 161 b/s
    Stream size : 50.1 KiB (0%)
    Title : Thai
    Default : No
    Forced : No
    Alternate group : 3

    Text #3
    ID : 5
    Format : Timed Text
    Muxing mode : sbtl
    Codec ID : tx3g
    Duration : 42 min 25 s
    Bit rate mode : Variable
    Bit rate : 72 b/s
    Stream size : 22.2 KiB (0%)
    Title : Bahasa Malaysia
    Default : No
    Forced : No
    Alternate group : 3

    Text #4
    ID : 6
    Format : Timed Text
    Muxing mode : sbtl
    Codec ID : tx3g
    Duration : 42 min 25 s
    Bit rate mode : Variable
    Bit rate : 47 b/s
    Stream size : 14.5 KiB (0%)
    Title : Traditional Chinese
    Default : No
    Forced : No
    Alternate group : 3

    Text #5
    ID : 7
    Format : Timed Text
    Muxing mode : sbtl
    Codec ID : tx3g
    Duration : 42 min 25 s
    Bit rate mode : Variable
    Bit rate : 78 b/s
    Stream size : 24.3 KiB (0%)
    Title : Korean
    Default : No
    Forced : No
    Alternate group : 3

    Text #6
    ID : 8
    Format : Timed Text
    Muxing mode : sbtl
    Codec ID : tx3g
    Duration : 42 min 25 s
    Bit rate mode : Variable
    Bit rate : 47 b/s
    Stream size : 14.5 KiB (0%)
    Title : Simplified Chinese
    Default : No
    Forced : No
    Alternate group : 3

    Text #7
    ID : 9
    Format : Timed Text
    Muxing mode : sbtl
    Codec ID : tx3g
    Duration : 42 min 25 s
    Bit rate mode : Variable
    Bit rate : 72 b/s
    Stream size : 22.4 KiB (0%)
    Title : Spanish
    Default : No
    Forced : No
    Alternate group : 3

    Text #8
    ID : 10
    Format : Timed Text
    Muxing mode : sbtl
    Codec ID : tx3g
    Duration : 42 min 25 s
    Bit rate mode : Variable
    Bit rate : 68 b/s
    Stream size : 21.0 KiB (0%)
    Title : English
    Default : No
    Forced : No
    Alternate group : 3

    Text #9
    ID : 11
    Format : Timed Text
    Muxing mode : sbtl
    Codec ID : tx3g
    Duration : 42 min 25 s
    Bit rate mode : Variable
    Bit rate : 77 b/s
    Stream size : 23.9 KiB (0%)
    Title : Bahasa Indonesia
    Default : No
    Forced : No
    Alternate group : 3

    Text #10
    ID : 12
    Format : Timed Text
    Muxing mode : sbtl
    Codec ID : tx3g
    Duration : 42 min 25 s
    Bit rate mode : Variable
    Bit rate : 97 b/s
    Stream size : 30.2 KiB (0%)
    Title : Arabic
    Default : No
    Forced : No
    Alternate group : 3




    ****************************************


    [​IMG]
    [​IMG]
    [​IMG]
    [​IMG]
    [​IMG]
    [​IMG]
    [​IMG]
    [​IMG]
    [​IMG]
    [​IMG]







    [​IMG]

    Nhấn nút Cảm ơn (dưới chân bài) để thấy link!



    =====================================
    =====================================












     
    Chỉnh sửa cuối: 2/12/21
  2. Anh YAM

    Anh YAM Uploader

    Tham gia ngày:
    5/1/19
    Bài viết:
    9,298
    Đã được cảm ơn:
    173,401
    Giới tính:
    Nam
    nếu không có vấn đề gì thì em cứ up mp4, mkv lại tốn thêm thời gian mix :D
    mp4 up cho nhanh
     
  3. Zhao Lusi

    Zhao Lusi Well-Known Member

    Tham gia ngày:
    10/11/21
    Bài viết:
    1,857
    Đã được cảm ơn:
    6,176
    Giới tính:
    Nam
    Pro vậy bác
     
    mihsun cảm ơn bài này.
  4. nhatquang_fx

    nhatquang_fx Member

    Tham gia ngày:
    30/5/09
    Bài viết:
    67
    Đã được cảm ơn:
    25
    Có 4K không bác chủ :rolleyes:
     
  5. Anh YAM

    Anh YAM Uploader

    Tham gia ngày:
    5/1/19
    Bài viết:
    9,298
    Đã được cảm ơn:
    173,401
    Giới tính:
    Nam
    có bác em up rồi
     
    Tuantrumso cảm ơn bài này.
  6. Anh YAM

    Anh YAM Uploader

    Tham gia ngày:
    5/1/19
    Bài viết:
    9,298
    Đã được cảm ơn:
    173,401
    Giới tính:
    Nam
    # Update: 7 & 8 (1080p)

    [​IMG]
     
    Tuantrumso cảm ơn bài này.
  7. Anh YAM

    Anh YAM Uploader

    Tham gia ngày:
    5/1/19
    Bài viết:
    9,298
    Đã được cảm ơn:
    173,401
    Giới tính:
    Nam
    # DROP 4K
    # Update: đến 12

    [​IMG]
     
  8. goodgirlgonebad

    goodgirlgonebad New Member

    Tham gia ngày:
    27/5/21
    Bài viết:
    19
    Đã được cảm ơn:
    7
    màu phim đẹp xem 4K đã mắt lắm luôn
    thanks chủ thớt nhìu lắm <3
    ------
    bạn cho mình hỏi, bạn có link down vietsub phim
    "Yêu rất mỹ vị" của Lý Thuần và Trương Hàm Vận ko ạ?
     
  9. Zhao Lusi

    Zhao Lusi Well-Known Member

    Tham gia ngày:
    10/11/21
    Bài viết:
    1,857
    Đã được cảm ơn:
    6,176
    Giới tính:
    Nam
    @Anh YAM mai bác rip nhé kk
     
  10. jackiechana

    jackiechana Member

    Tham gia ngày:
    20/7/09
    Bài viết:
    88
    Đã được cảm ơn:
    7
    Lâu rồi mới có phim hấp dẫn này :))
     
  11. hutapa

    hutapa Active Member

    Tham gia ngày:
    14/1/10
    Bài viết:
    431
    Đã được cảm ơn:
    170
    Giới tính:
    Nam
    Nơi ở:
    VIỆT NAM
    @Anh YAM
    Mong bro lên đủ bộ luôn với.
    Cám ơn!
     

Chia sẻ trang này