[Fshare] Bích Huyết Kiếm - 碧血剑 2007 - HD 720P - 30/30 tập - VTV2 Thuyết Minh

Thảo luận trong 'Phim bộ - Series' bắt đầu bởi duongminhngau, 13/8/18.

  1. duongminhngau

    duongminhngau Well-Known Member

    Tham gia ngày:
    7/12/11
    Bài viết:
    689
    Đã được cảm ơn:
    8,146
    Giới tính:
    Nam
    Bích Huyết Kiếm - 碧血剑 2007 - HD 720P - 30/30 tập - VTV2 Thuyết Minh
    [​IMG]






    Thông tin chung:

    Nguyên tác: Kim Dung

    Kịch bản: Lãng Tuyết Phong - Lý Bân Hoa - Chu Khả Hân



    Đạo diễn : Trương Kỷ Trung - Lý Hàn Thao



    Diễn viên:

    Đậu Trí Khổng: Viên Thừa Chí
    Huỳnh Thánh Y: Hạ Thanh Thanh
    Tôn Phi Phi: A Cửu
    Tiêu Thục Thận: Hà Thiết Thủ
    Mã Tô: An Tiểu Tuệ
    Quách Kim: Hà Hồng Dược
    Cao Hổ: Sùng Trinh
    Triệu Nghị: An Kiếm Thanh
    Lưu Nãi Vân: Ngọc Chân Tử
    Tiêu Ân Tuấn: Kim Xà Lang Quân
    Trình Hạo Phong: Lý Nham




    Thông tin file
    Mã:
    [/COLOR][/FONT][/CENTER][/COLOR][/FONT][/CENTER]
    [FONT=Times New Roman][COLOR=rgb(51, 51, 51)]
    [CENTER]General
    Unique ID  : 195013504716568766956937425926923414211 (0x92B63C1DC6CC1AB1AA402C5545B2EAC3)
    Complete name  : D:\Downloads\Sword.Stained.with.Royal.Blood.2007.E12.HDTV.720P.mkv
    Format  : Matroska
    Format version  : Version 4 / Version 2
    File size  : 1.76 GiB
    Duration  : 41 min 52 s
    Overall bit rate  : 6 028 kb/s
    Encoded date  : UTC 2018-08-11 12:18:16
    Writing application  : mkvmerge v8.2.0 ('World of Adventure') 64bit
    Writing library  : libebml v1.3.1 + libmatroska v1.4.2
    Video
    ID  : 1
    Format  : AVC
    Format/Info  : Advanced Video Codec
    Format profile  : [email protected]
    Format settings  : CABAC / 5 Ref Frames
    Format settings, CABAC  : Yes
    Format settings, ReFrames  : 5 frames
    Codec ID  : V_MPEG4/ISO/AVC
    Duration  : 41 min 52 s
    Bit rate  : 5 258 kb/s
    Width  : 1 280 pixels
    Height  : 720 pixels
    Display aspect ratio  : 16:9
    Frame rate mode  : Constant
    Frame rate  : 29.970 (30000/1001) FPS
    Color space  : YUV
    Chroma subsampling  : 4:2:0
    Bit depth  : 8 bits
    Scan type  : Progressive
    Bits/(Pixel*Frame)  : 0.190
    Stream size  : 1.54 GiB (87%)
    Title  : English
    Writing library  : x264 core 120 r2164 da19765
    Encoding settings  : cabac=1 / ref=5 / deblock=1:0:0 / analyse=0x3:0x133 / me=umh / subme=7 / psy=0 / mixed_ref=1 / me_range=16 / chroma_me=1 / trellis=1 / 8x8dct=1 / cqm=0 / deadzone=21,11 / fast_pskip=0 / chroma_qp_offset=0 / threads=6 / sliced_threads=0 / nr=100 / decimate=1 / interlaced=0 / bluray_compat=0 / constrained_intra=0 / bframes=3 / b_pyramid=2 / b_adapt=2 / b_bias=0 / direct=1 / weightb=1 / open_gop=0 / weightp=2 / keyint=300 / keyint_min=29 / scenecut=40 / intra_refresh=0 / rc_lookahead=40 / rc=crf / mbtree=1 / crf=19.0 / qcomp=0.60 / qpmin=0 / qpmax=69 / qpstep=4 / vbv_maxrate=50000 / vbv_bufsize=50000 / crf_max=0.0 / nal_hrd=none / ip_ratio=1.40 / aq=1:1.00
    Language  : English
    Default  : Yes
    Forced  : No
    Audio #1
    ID  : 2
    Format  : AC-3
    Format/Info  : Audio Coding 3
    Commercial name  : Dolby Digital
    Codec ID  : A_AC3
    Duration  : 41 min 51 s
    Bit rate mode  : Constant
    Bit rate  : 192 kb/s
    Channel(s)  : 2 channels
    Channel positions  : Front: L R
    Sampling rate  : 48.0 kHz
    Frame rate  : 31.250 FPS (1536 SPF)
    Bit depth  : 16 bits
    Compression mode  : Lossy
    Stream size  : 57.5 MiB (3%)
    Title  : Vietnam
    Language  : Vietnamese
    Service kind  : Complete Main
    Default  : Yes
    Forced  : No
    Audio #2
    ID  : 3
    Format  : MPEG Audio
    Format version  : Version 1
    Format profile  : Layer 2
    Codec ID  : A_MPEG/L2
    Codec ID/Hint  : MP2
    Duration  : 41 min 52 s
    Bit rate mode  : Constant
    Bit rate  : 384 kb/s
    Channel(s)  : 2 channels
    Sampling rate  : 48.0 kHz
    Frame rate  : 41.667 FPS (1152 SPF)
    Compression mode  : Lossy
    Stream size  : 115 MiB (6%)
    Title  : Mandarin
    Language  : Chinese
    Default  : No
    Forced  : No
    Audio #3
    ID  : 4
    Format  : AC-3
    Format/Info  : Audio Coding 3
    Commercial name  : Dolby Digital
    Codec ID  : A_AC3
    Duration  : 41 min 52 s
    Bit rate mode  : Constant
    Bit rate  : 192 kb/s
    Channel(s)  : 2 channels
    Channel positions  : Front: L R
    Sampling rate  : 48.0 kHz
    Frame rate  : 31.250 FPS (1536 SPF)
    Bit depth  : 16 bits
    Compression mode  : Lossy
    Stream size  : 57.5 MiB (3%)
    Title  : Cantonese
    Language  : Chinese
    Service kind  : Complete Main
    Default  : No
    Forced  : No
    







    Giới Thiệu:
    Một tác phẩm của Kim Dung, cuối thời Minh, đại tướng Viên Sùng Hoán bị buộc tội tư thông với ngoại phiên , bị Hoàng Đế Sùng Trinh xử tử. Con trai Viên Sùng Hoán là Viên Thừa Chí lên Hoa Sơn và được Mục Nhân Thanh truyền dạy võ nghệ. Viên Thừa Chí khi lớn đã học võ công tuyệt thế của Kim Xà Lang Quân Hạ Tuyết Nghi, gia nhập lực lượng khởi nghĩa của Lý Tự Thành lật đổ triều đình nhà Minh, bảo vệ Trung Quốc trước sự xâm lược của quân Hậu Kim (Mãn Châu)…


    ++++ Chân thành cảm ơn bác trungladykillah ! ++++




    Link Down
    02/05/2020 đổi sang G Drive

    Tập 01- 15
    Nhấn nút Cảm ơn (dưới chân bài) để thấy link!


    Tập 16 - 30 END
    Nhấn nút Cảm ơn (dưới chân bài) để thấy link!
     
    Chỉnh sửa cuối: 2/5/20
  2. tvshow

    tvshow Member

    Tham gia ngày:
    14/3/16
    Bài viết:
    96
    Đã được cảm ơn:
    41
    Biết thế nào bác cũng làm tới bộ này :p. Bản USLT hdtv trước đây tiếng lệch xem khá khó chịu.
     
    hungttx, loctran999 and duongminhngau like this.
  3. duongminhngau

    duongminhngau Well-Known Member

    Tham gia ngày:
    7/12/11
    Bài viết:
    689
    Đã được cảm ơn:
    8,146
    Giới tính:
    Nam
    Haaaaaaa! Biết luôn mới tài chứ!!! Có lẽ tiếp theo là Tiếu Ngạo 2001 TM VTV, đang tìm bản đẹp rồi làm.
     
  4. z1234567

    z1234567 New Member

    Tham gia ngày:
    30/4/10
    Bài viết:
    22
    Đã được cảm ơn:
    20
    nó là đỉnh cao bác duongminhngau ơi haha :)). Bộ nào bác làm e cũng lưu hết, toàn TM VTV tuyển :)).
    Trước em có down bộ Anh hùng xạ điêu bản 2003 TM VTV trên youtube về, bác có định làm tiếp không bác ơiii :D:D:D.

    Bộ Tiếu ngạo giang hồ 2001 em thấy có bác trên forum mình post đợt trước, file gốc tiếng hoa chất lượng em thấy ổn ra phết này bác :D:D
    https://www.fshare.vn/folder/SWZWCQC8T9HF
    https://www.fshare.vn/folder/16JWOGWUDXDQ
    Nguồn: http://www.hdvietnam.com/threads/phim-bo-tvb-atv-tong-hop-hang-hiem-suu-tam.1420025/
    Audio bộ Tiếu ngạo giang hồ 2001 này thì em trước có down trên youtube về cái này, bác nghe xem thấy ổn không e up hết cả bộ
    https://www.fshare.vn/file/PTPTQVZ37D1S

    Bác duongminhngau up giúp em lại tập 10 bộ Thần điêu đại hiệp 2014 trước bác làm được kô ạ, trước em down rùi mà xem tập 10 chắc em tải bị lỗi, cứ đến gần cuối phim là treo ^^!
     
    hungttx, loctran999 and duongminhngau like this.
  5. phanhoangphi_12a

    phanhoangphi_12a Well-Known Member

    Tham gia ngày:
    25/9/10
    Bài viết:
    829
    Đã được cảm ơn:
    273
    quấc hết bộ này của bác :D
     
    hungttx, loctran999 and duongminhngau like this.
  6. nhatduy0309

    nhatduy0309 New Member

    Tham gia ngày:
    24/1/19
    Bài viết:
    26
    Đã được cảm ơn:
    9
    Giới tính:
    Nam
    Bạn còn giữ bộ này ko cho mình xin mấy tập còn thiếu nha
     
    hungttx and duongminhngau like this.
  7. duongminhngau

    duongminhngau Well-Known Member

    Tham gia ngày:
    7/12/11
    Bài viết:
    689
    Đã được cảm ơn:
    8,146
    Giới tính:
    Nam
    Hơn 1 giờ nữa sẽ xong các tập đã bị thiếu(24 + 26, 27, 28, 29, 30 end) , do lâu quá ko ai down nên fshare tự xóa, have fun
     
  8. nhatduy0309

    nhatduy0309 New Member

    Tham gia ngày:
    24/1/19
    Bài viết:
    26
    Đã được cảm ơn:
    9
    Giới tính:
    Nam
    Cảm ơn bạn nhiều!
     
    hungttx and duongminhngau like this.
  9. lam6630

    lam6630 Well-Known Member

    Tham gia ngày:
    20/11/08
    Bài viết:
    1,701
    Đã được cảm ơn:
    1,236
    Giới tính:
    Nam
    Nơi ở:
    TP HCM
    thank.......
     
    hungttx and duongminhngau like this.
  10. anbinhdo

    anbinhdo Well-Known Member

    Tham gia ngày:
    3/3/10
    Bài viết:
    12,390
    Đã được cảm ơn:
    420
    Nghề nghiệp:
    Điện Tử Viễn Thông
    Nơi ở:
    TP Đà Nẵng - Việt Nam
    Cảm ơn Bác!
    Sao vào link báo không tồn tại, nhờ Bác chủ xem lại giúp
     
    hungttx and loctran999 like this.
  11. duongminhngau

    duongminhngau Well-Known Member

    Tham gia ngày:
    7/12/11
    Bài viết:
    689
    Đã được cảm ơn:
    8,146
    Giới tính:
    Nam
    Còn nguyên ở đó mà Bác?! Thử lại xem nhé ^^
     
  12. ngochoa196

    ngochoa196 Active Member

    Tham gia ngày:
    6/7/19
    Bài viết:
    124
    Đã được cảm ơn:
    166
    Giới tính:
    Nữ
    thank bác
    nhưng bị thiếu mấy tập mong bác up lại để em dow về xem với ạ
     
    hungttx, loctran999 and duongminhngau like this.
  13. tiencoke

    tiencoke New Member

    Tham gia ngày:
    16/1/20
    Bài viết:
    2
    Đã được cảm ơn:
    2
    thiếu tập 28 29 30 rùi ạ. phiền bác up lại với ạ
     
    hungttx and duongminhngau like this.

Chia sẻ trang này