[Fshare] AppleTV+ TV Show Collection 1080p WEB-DL DD+ 5.1 x264 ~ Bộ Sưu Tập TV Show Của AppleTV+ (Vietsub)

Thảo luận trong 'Phim bộ - Series' bắt đầu bởi tremocoivo, 22/4/20.

  1. tremocoivo

    tremocoivo Well-Known Member

    Tham gia ngày:
    25/2/10
    Bài viết:
    1,576
    Đã được cảm ơn:
    52,141
    Giới tính:
    Nam


    Bộ Sưu Tập TV Show Của AppleTV+ {Sub Việt Mux Sẵn}

    [​IMG]

    Apple TV+ là dịch vụ xem phim hoàn toàn mới vừa được “táo khuyết” giới thiệu trong năm nay. Với Appple TV+, bạn sẽ được xem những bộ phim độc quyền do Apple và những bậc thầy phim truyền hình và điện ảnh hợp tác tạo nên.


    Thông qua ứng dụng Apple TV, tất cả những bộ phim và chương trình truyền hình bạn yêu thích được tập hợp vào trong một ứng dụng duy nhất. Bạn càng xem nhiều, những nội dung này càng chọn lọc và cá nhân hóa theo sở thích của bạn. Và ứng dụng Apple TV này có mặt trên iPhone, iPad, iPod cũng như Apple TV và máy Mac của bạn.

    Đặc biệt hơn, các chương trình được sản xuất mới sẽ được cung cấp phụ đề với hơn 40 ngôn ngữ, bao gồm cả tiếng Việt, và các chương trình truyền hình cũng như phim trên Apple TV+ được cung cấp thuyết minh với 8 ngôn ngữ.

    DANH SÁCH TV SHOW HIỆN CÓ CỦA APPLETV+
    01. Nhà Văn Tham Vọng - Dickinson (2019)- 2 Season
    02. Cuộc Chiến Không Gian - For All Mankind (2019)
    03. Hồn Ma Nhà Văn - Ghostwriter (2019)
    04. Về Nhà Trước Tối - Home Before Dark (2020)
    05. Giấc Mơ Mỹ - Little America (2020)
    06. Sứ Mệnh Thần Thoại: Bữa Tiệc Của Bầy Quạ - Mythic Quest Ravens Banquet (2019)
    07. Snoopy Trong Không Gian - Snoopy in Space (2020)
    08. Bản Tin Sáng - The Morning Show (2019)
    09. Vén Màn Sự Thật - Truth Be Told (2020)
    10. Cộng Đồng Đồng Tính - Visible Out on Television (2020)
    11. Thấy - See (2019)
    12. Những Câu Chuyện Huyền Bí - Amazing Stories S01 (2020)
    13. Người Hầu - Servant (2019) - 2 Season
    14. Ngôi Nhà Tương Lai - Home (2020)
    15. Bảo Vệ Jacob - Defending Jacob (2020)
    16. Dear... (2020)
    17. Giọng Nói Nhỏ Trong Đầu - Little Voice (2020)
    18. Công Viên Trung Tâm - Central Park (2020)
    19. Gián Điệp Kinh Dị - Tehran (2020)
    20. Thế Giới Siêu Nhỏ - Tiny World (2020)
    21. Hồn Ma Nhà Văn - Phần 2 - Ghostwriter (2020)
    22. Trở Thành Chính Mình - Becoming You (2020)
    23. The Snoopy Show (2021)
     
    Chỉnh sửa cuối: 24/3/21
  2. tremocoivo

    tremocoivo Well-Known Member

    Tham gia ngày:
    25/2/10
    Bài viết:
    1,576
    Đã được cảm ơn:
    52,141
    Giới tính:
    Nam

    Nhà Văn Tham Vọng (2019)
    Dickinson S01 1080p ATVP WEB-DL DD 5.1 h.264-TOMMY {Sub Việt Mux Sẵn}

    [​IMG]
    https://www.imdb.com/title/tt8518136

    Câu chuyện có thật hấp dẫn của nhà văn đầy tham vọng Emily Dickinson được đưa vào cuộc sống với cảm giác và sự nhạy cảm hiện đại. Xấu hổ bởi chính cha mẹ của mình và xa lánh xã hội, Dickinson sẽ không dừng lại để chống lại nền tảng nghiêm ngặt của mình và khiến giọng nói của cô được nghe qua phép thuật của thơ ca.

    SCREENSHOT
    [​IMG]
    DOWNLOAD
     
    Chỉnh sửa cuối: 22/4/20
  3. tremocoivo

    tremocoivo Well-Known Member

    Tham gia ngày:
    25/2/10
    Bài viết:
    1,576
    Đã được cảm ơn:
    52,141
    Giới tính:
    Nam

    Hồn Ma Nhà Văn (2019)
    Ghostwriter S01 1080p ATVP WEB-DL DD 5.1 h.264-MZABI {Sub Việt Mux Sẵn}

    [​IMG]
    https://www.imdb.com/title/tt11004134

    Khi một con ma ám ảnh một hiệu sách khu phố và bắt đầu thả các nhân vật hư cấu vào thế giới thực, bốn đứa trẻ phải hợp tác để giải quyết một bí ẩn thú vị xung quanh việc kinh doanh ma còn dang dở.

    SCREENSHOT
    [​IMG]
    DOWNLOAD
     
    Chỉnh sửa cuối: 22/4/20
  4. tremocoivo

    tremocoivo Well-Known Member

    Tham gia ngày:
    25/2/10
    Bài viết:
    1,576
    Đã được cảm ơn:
    52,141
    Giới tính:
    Nam

    Về Nhà Trước Tối (2020)
    Home Before Dark S01 1080p ATVP WEB-DL DD+ 5.1 H.264-NTb {Sub Việt Mux Sẵn}

    [​IMG]
    https://www.imdb.com/title/tt6053512

    Loạt phim trinh thám lấy cảm hứng từ câu chuyện có thật về một nhà báo 9 tuổi. Khi cô bé cùng gia đình chuyển về thị trấn nhỏ mà bố cô tình sinh sống, hành trình tìm kiếm sự thật của cô mở lại một vụ án từ lâu chưa có lời giải.

    SCREENSHOT
    [​IMG]
    DOWNLOAD
     
  5. tremocoivo

    tremocoivo Well-Known Member

    Tham gia ngày:
    25/2/10
    Bài viết:
    1,576
    Đã được cảm ơn:
    52,141
    Giới tính:
    Nam

    Giấc Mơ Mỹ (2020)
    Little America S01 1080p ATVP WEB-DL DD+ 5.1 x.264-AMCON {Sub Việt Mux Sẵn}

    [​IMG]
    https://www.imdb.com/title/tt8000674

    Lấy cảm hứng từ những câu chuyện có thật của Tạp chí Epic, “Little America” sẽ vượt xa các tiêu đề để xem những câu chuyện hài hước, lãng mạn, chân thành, đầy cảm hứng và đáng ngạc nhiên của những người nhập cư ở Mỹ, khi chúng trở nên phù hợp hơn bao giờ hết.

    SCREENSHOT
    [​IMG]
    DOWNLOAD
     
  6. tremocoivo

    tremocoivo Well-Known Member

    Tham gia ngày:
    25/2/10
    Bài viết:
    1,576
    Đã được cảm ơn:
    52,141
    Giới tính:
    Nam

    Snoopy Trong Không Gian (2020)
    Snoopy in Space S01 1080p ATVP WEB-DL DD 5.1 H.264-MZABI {Sub Việt Mux Sẵn}

    [​IMG]
    https://www.imdb.com/title/tt10659366

    Câu chuyện kể về ước mơ của Snoopy trở thành nhà du hành vũ trụ trở thành hiện thực, khi anh và thẻ Woodstock của mình cùng với băng đảng Peanuts trong chuyến đi tới NASA.

    SCREENSHOT
    [​IMG]
    DOWNLOAD
     
  7. tremocoivo

    tremocoivo Well-Known Member

    Tham gia ngày:
    25/2/10
    Bài viết:
    1,576
    Đã được cảm ơn:
    52,141
    Giới tính:
    Nam

    Bản Tin Sáng (2019)
    The Morning Show S01 1080p ATVP WEB-DL DD+ 5.1 Atmos H.264-MZABI {Sub Việt Mux Sẵn}

    [​IMG]
    https://www.imdb.com/title/tt7203552

    The Morning Show xoay quanh bê bối tình dục trong một đài truyền hình, nơi các biên tập nam và nữ bị quấy rối bởi chính đồng nghiệp của họ. Series có sự tham gia của các diễn viên Steve Carell (đóng The Office, Beautiful Boy), Nestor Carbonell (đóng Lost, loạt phim The Dark Night)...

    SCREENSHOT
    [​IMG]
    DOWNLOAD
     
  8. tremocoivo

    tremocoivo Well-Known Member

    Tham gia ngày:
    25/2/10
    Bài viết:
    1,576
    Đã được cảm ơn:
    52,141
    Giới tính:
    Nam

    Vén Màn Sự Thật (2019)
    Truth Be Told S01 1080p ATVP WEB-DL DD+ 5.1 H.264-TOMMY {Sub Việt Mux Sẵn}

    [​IMG]
    https://www.imdb.com/title/tt7821582
    Ngôi sao Octavia Spencer đóng phóng viên điều tra, nghi ngờ các chứng cứ quy tội mưu sát cho một thiếu niên khoảng 20 năm trước (Aaron Paul đóng). Cô tạo ra một chương trình podcast (phân phối các tập tin âm thanh hoặc video số cho người dùng) để thuyết phục dư luận xét lại vụ án. Nhân vật kiên trì với dự án bất chấp sự phản đối của cảnh sát, người thân nạn nhân và gia đình của chính cô.

    SCREENSHOT
    [​IMG]
    DOWNLOAD
     
    Chỉnh sửa cuối: 22/4/20
    bsquoctoan, moon2318, mbd292 and 39 others like this.
  9. tremocoivo

    tremocoivo Well-Known Member

    Tham gia ngày:
    25/2/10
    Bài viết:
    1,576
    Đã được cảm ơn:
    52,141
    Giới tính:
    Nam

    Cộng Đồng Đồng Tính (2020)
    Visible Out on Television S01 1080p ATVP WEB-DL DD+ 5.1 H.264-CasStudio {Sub Việt Mux Sẵn}

    [​IMG]
    https://www.imdb.com/title/tt11610268

    Loạt phim tài liệu xoay quanh cách những người thuộc cộng đồng LGBT được mô tả trên truyền hình 70 năm qua. Từ điểm nhìn này, tác phẩm gợi mở nhiều biến chuyển của văn hóa Mỹ. Mỗi tập có một chủ đề như tình trạng kỳ thị đồng tính, sự thay đổi của các nhân vật này trên phim theo thời gian, việc sao công khai giới tính... Một số điểm nhấn trong phim là trải nghiệm của các diễn viên đồng tính thế kỷ 20 như Sheila Kuehl và Raymond Burr, tầm ảnh hưởng của series nổi tiếng gần đây về chủ đề này như Pose.

    SCREENSHOT
    [​IMG]
    DOWNLOAD
     
    Chỉnh sửa cuối: 22/4/20
  10. tremocoivo

    tremocoivo Well-Known Member

    Tham gia ngày:
    25/2/10
    Bài viết:
    1,576
    Đã được cảm ơn:
    52,141
    Giới tính:
    Nam

    Thấy (2019)
    See S01 1080p ATVP WEB-DL DD+ 5.1 H.264-CasStudio {Sub Việt Mux Sẵn}

    [​IMG]
    https://www.imdb.com/title/tt7949218

    See lấy bối cảnh tương lai. Vào cuối thế kỷ 21, loài người gặp phải một loại dịch bệnh làm chết hàng tỷ người, chỉ còn khoảng 2 triệu người sống sót nhưng tất cả họ đều bị mù. Nền văn minh nhân loại bị xóa sổ gần như hoàn toàn.

    500 năm sau đó, thị giác chỉ còn là truyền thuyết và được cho là dị giáo. Những người nhắc đến thị giác bị cho là phù thủy và sẽ bị thiêu sống, tuy nhiên con người đã phát triển khứu giác, xúc giác và trực giác đến mức xuất chúng để tiếp tục tồn tại trong một thế giới hoang dã. Họ sống thành các bộ lạc, với những chiến binh có khả năng đặc biệt là khứu giác (khứu nhân), Shadow (bóng đêm, người có khả năng di chuyển không gây tiếng động) và trực giác (dự cảm sư).

    SCREENSHOT
    [​IMG]
    DOWNLOAD
     
  11. tremocoivo

    tremocoivo Well-Known Member

    Tham gia ngày:
    25/2/10
    Bài viết:
    1,576
    Đã được cảm ơn:
    52,141
    Giới tính:
    Nam

    Người Hầu (2019)
    Servant S01 1080p ATVP WEB-DL DD+ 5.1 H.264-CasStudio {Sub Việt Mux Sẵn}

    [​IMG]
    https://www.imdb.com/title/tt8068860

    Một đôi vợ chồng trẻ Philadelphia vừa mới mất con mình, họ đành phải "nuôi" một búp bê để thay cho sự đau khổ mất mát ấy. Họ thuê một cô gái trẻ hằng ngày ở nhà để trông nom con búp bê như một đứa bé sơ sinh bình thường. Rồi dần dần những điều kỳ lạ ập đến, không rõ là từ con búp bê hay từ cô gái lạnh lùng này.

    SCREENSHOT
    [​IMG]
    DOWNLOAD
     
  12. tremocoivo

    tremocoivo Well-Known Member

    Tham gia ngày:
    25/2/10
    Bài viết:
    1,576
    Đã được cảm ơn:
    52,141
    Giới tính:
    Nam

    [PHIM TÀI LIỆU] Ngôi Nhà Tương Lai (2020)
    Home S01 1080p ATVP WEB-DL DD+ 5.1 Atmos x264-TOMMY {Sub Việt Mux Sẵn}

    [​IMG]
    https://www.imdb.com/title/tt8068900

    Discover the groundbreaking ideas and inspiring stories behind the world’s most imaginative dwellings. In this globe-spanning docuseries, meet the visionaries who are challenging conventional concepts of “home” and rethinking how we live.

    SCREENSHOT
    [​IMG]
    DOWNLOAD
     
  13. hiepmu

    hiepmu Well-Known Member

    Tham gia ngày:
    20/12/09
    Bài viết:
    1,237
    Đã được cảm ơn:
    490
    đang hâm mộ em Hailee Steinfeld thì gặp ngay bác kkkkkk :D
     
    happyman761, bui van thang and hududo like this.
  14. tremocoivo

    tremocoivo Well-Known Member

    Tham gia ngày:
    25/2/10
    Bài viết:
    1,576
    Đã được cảm ơn:
    52,141
    Giới tính:
    Nam

    Bảo Vệ Jacob (2020)
    Defending Jacob S01 1080p ATVP WEB-DL DD+ 5.1 H.264-CasStudio {Sub Việt Mux Sẵn}

    [​IMG]
    https://www.imdb.com/title/tt2304589

    Defending Jacob xoay quanh Andy Barber, một luật sư phụ tá đang điều tra cái chết bất thường của cậu bé 14 tuổi. Trong quá trình lần tìm tung tích hung thủ, ông phát hiện ra con trai Jacob của mình là một trong những nghi phạm trong vụ án. Từ đó, mọi mâu thuẫn, đấu tranh trong con người Andy Barber và các mối quan hệ gia đình, xã hội của ông bắt đầu đẩy lên cao trào.

    SCREENSHOT
    [​IMG]
    DOWNLOAD
    Đã hoàn thành 08/08 tập.
     
    Chỉnh sửa cuối: 14/6/20
  15. tremocoivo

    tremocoivo Well-Known Member

    Tham gia ngày:
    25/2/10
    Bài viết:
    1,576
    Đã được cảm ơn:
    52,141
    Giới tính:
    Nam

    Cố Gắng (2020)
    Trying S01 1080p ATVP WEB-DL DDP 5.1 Atmos x264-GHOSTS {Sub Việt Mux Sẵn}

    [​IMG]
    https://www.imdb.com/title/tt10982034

    All Nikki and Jason want is a baby—the one thing they can’t have. So they decide to adopt. With their dysfunctional friends, screwball families, and chaotic lives, will the adoption panel agree that they’re ready to be parents?

    SCREENSHOT
    [​IMG]
    DOWNLOAD
     
  16. binh1010

    binh1010 Active Member

    Tham gia ngày:
    18/5/14
    Bài viết:
    191
    Đã được cảm ơn:
    127
    Giới tính:
    Nam
    Phim Servant 2019 thiếu mất tập 10 bạn ơi!
     
    tremocoivo cảm ơn bài này.
  17. tremocoivo

    tremocoivo Well-Known Member

    Tham gia ngày:
    25/2/10
    Bài viết:
    1,576
    Đã được cảm ơn:
    52,141
    Giới tính:
    Nam
    Đã cập nhật đủ nha.
     
    KhiBungTo, Super Man and duydangle like this.
  18. binh1010

    binh1010 Active Member

    Tham gia ngày:
    18/5/14
    Bài viết:
    191
    Đã được cảm ơn:
    127
    Giới tính:
    Nam
    Phim Defending Jacob tới tập 8 là hết phần 1 chưa bạn?
    Tập 7 chưa thấy bạn up lên. Đang chờ tập 7 của bạn đây.
     
  19. tremocoivo

    tremocoivo Well-Known Member

    Tham gia ngày:
    25/2/10
    Bài viết:
    1,576
    Đã được cảm ơn:
    52,141
    Giới tính:
    Nam
    Sorry dạo này mình bận quá nên không theo dõi kịp. Đã update Ep07 nha. Bộ này S01 có 8 tập.
     
    kunhikfc, Super Man and duydangle like this.
  20. tremocoivo

    tremocoivo Well-Known Member

    Tham gia ngày:
    25/2/10
    Bài viết:
    1,576
    Đã được cảm ơn:
    52,141
    Giới tính:
    Nam

    Dear... (2020)
    Dear S01 2020 1080p ATVP WEB-DL DDP5.1 Atmos x264-TRUMP {Sub Việt Mux Sẵn}

    [​IMG]
    https://www.imdb.com/title/tt10597242

    One person’s story can change the world. From Emmy-winning filmmaker R.J. Cutler, this 10-part docuseries profiles game-changing icons and the people whose lives they’ve inspired.

    Mã:
    Video
    ID : 1
    Format : AVC
    Format/Info : Advanced Video Codec
    Format profile : [email protected]
    Format settings : CABAC / 4 Ref Frames
    Format settings, CABAC : Yes
    Format settings, Reference frames : 4 frames
    Codec ID : V_MPEG4/ISO/AVC
    Duration : 38 min 38 s
    Bit rate : 9 907 kb/s
    Width : 1 920 pixels
    Height : 1 080 pixels
    Display aspect ratio : 16:9
    Frame rate mode : Constant
    Frame rate : 23.976 (24000/1001) FPS
    Color space : YUV
    Chroma subsampling : 4:2:0
    Bit depth : 8 bits
    Scan type : Progressive
    Bits/(Pixel*Frame) : 0.199
    Stream size : 2.67 GiB (93%)
    Language : English
    Default : Yes
    Forced : No
    Color range : Limited
    Color primaries : BT.709
    Transfer characteristics : BT.709
    Matrix coefficients : BT.709
    
    Audio
    ID : 2
    Format : E-AC-3 JOC
    Format/Info : Enhanced AC-3 with Joint Object Coding
    Commercial name : Dolby Digital Plus with Dolby Atmos
    Codec ID : A_EAC3
    Duration : 38 min 39 s
    Bit rate mode : Constant
    Bit rate : 768 kb/s
    Channel(s) : 6 channels
    Channel layout : L R C LFE Ls Rs
    Sampling rate : 48.0 kHz
    Frame rate : 31.250 FPS (1536 SPF)
    Compression mode : Lossy
    Stream size : 212 MiB (7%)
    Language : English
    Service kind : Complete Main
    Default : Yes
    Forced : No
    Complexity index : 16
    Number of dynamic objects : 15
    Bed channel count : 1 channel
    Bed channel configuration : LFE
    
    Text #1
    ID : 3
    Format : UTF-8
    Codec ID : S_TEXT/UTF8
    Codec ID/Info : UTF-8 Plain Text
    Duration : 38 min 24 s
    Bit rate : 136 b/s
    Count of elements : 646
    Stream size : 38.5 KiB (0%)
    Title : العربية
    Language : Arabic
    Default : No
    Forced : No
    
    Text #2
    ID : 4
    Format : UTF-8
    Codec ID : S_TEXT/UTF8
    Codec ID/Info : UTF-8 Plain Text
    Duration : 38 min 24 s
    Bit rate : 150 b/s
    Count of elements : 592
    Stream size : 42.3 KiB (0%)
    Title : български
    Language : Bulgarian
    Default : No
    Forced : No
    
    Text #3
    ID : 5
    Format : UTF-8
    Codec ID : S_TEXT/UTF8
    Codec ID/Info : UTF-8 Plain Text
    Duration : 38 min 24 s
    Bit rate : 94 b/s
    Count of elements : 616
    Stream size : 26.6 KiB (0%)
    Title : Čeština
    Language : Czech
    Default : No
    Forced : No
    
    Text #4
    ID : 6
    Format : UTF-8
    Codec ID : S_TEXT/UTF8
    Codec ID/Info : UTF-8 Plain Text
    Duration : 38 min 24 s
    Bit rate : 96 b/s
    Count of elements : 607
    Stream size : 27.0 KiB (0%)
    Title : dansk
    Language : Danish
    Default : No
    Forced : No
    
    Text #5
    ID : 7
    Format : UTF-8
    Codec ID : S_TEXT/UTF8
    Codec ID/Info : UTF-8 Plain Text
    Duration : 37 min 45 s
    Bit rate : 101 b/s
    Count of elements : 628
    Stream size : 28.1 KiB (0%)
    Title : Deutsch
    Language : German
    Default : No
    Forced : No
    
    Text #6
    ID : 8
    Format : UTF-8
    Codec ID : S_TEXT/UTF8
    Codec ID/Info : UTF-8 Plain Text
    Duration : 38 min 24 s
    Bit rate : 167 b/s
    Count of elements : 600
    Stream size : 47.0 KiB (0%)
    Title : Ελληνικά
    Language : Greek
    Default : No
    Forced : No
    
    Text #7
    ID : 9
    Format : UTF-8
    Codec ID : S_TEXT/UTF8
    Codec ID/Info : UTF-8 Plain Text
    Duration : 24 min 38 s
    Bit rate : 0 b/s
    Count of elements : 2
    Stream size : 55.0 Bytes (0%)
    Title : English (forced)
    Language : English
    Default : No
    Forced : Yes
    
    Text #8
    ID : 10
    Format : UTF-8
    Codec ID : S_TEXT/UTF8
    Codec ID/Info : UTF-8 Plain Text
    Duration : 37 min 37 s
    Bit rate : 102 b/s
    Count of elements : 633
    Stream size : 28.2 KiB (0%)
    Title : English (SDH)
    Language : English
    Default : No
    Forced : No
    
    Text #9
    ID : 11
    Format : UTF-8
    Codec ID : S_TEXT/UTF8
    Codec ID/Info : UTF-8 Plain Text
    Duration : 37 min 34 s
    Bit rate : 98 b/s
    Count of elements : 610
    Stream size : 27.1 KiB (0%)
    Title : English
    Language : English
    Default : No
    Forced : No
    
    Text #10
    ID : 12
    Format : UTF-8
    Codec ID : S_TEXT/UTF8
    Codec ID/Info : UTF-8 Plain Text
    Duration : 38 min 26 s
    Bit rate : 94 b/s
    Count of elements : 604
    Stream size : 26.7 KiB (0%)
    Title : Español (España)
    Language : Spanish
    Default : No
    Forced : No
    
    Text #11
    ID : 13
    Format : UTF-8
    Codec ID : S_TEXT/UTF8
    Codec ID/Info : UTF-8 Plain Text
    Duration : 38 min 24 s
    Bit rate : 100 b/s
    Count of elements : 649
    Stream size : 28.1 KiB (0%)
    Title : Español (Latinoamérica)
    Language : Spanish
    Default : No
    Forced : No
    
    Text #12
    ID : 14
    Format : UTF-8
    Codec ID : S_TEXT/UTF8
    Codec ID/Info : UTF-8 Plain Text
    Duration : 38 min 24 s
    Bit rate : 87 b/s
    Count of elements : 609
    Stream size : 24.7 KiB (0%)
    Title : eesti
    Language : Estonian
    Default : No
    Forced : No
    
    Text #13
    ID : 15
    Format : UTF-8
    Codec ID : S_TEXT/UTF8
    Codec ID/Info : UTF-8 Plain Text
    Duration : 38 min 24 s
    Bit rate : 81 b/s
    Count of elements : 633
    Stream size : 23.0 KiB (0%)
    Title : Suomi
    Language : Finnish
    Default : No
    Forced : No
    
    Text #14
    ID : 16
    Format : UTF-8
    Codec ID : S_TEXT/UTF8
    Codec ID/Info : UTF-8 Plain Text
    Duration : 37 min 58 s
    Bit rate : 100 b/s
    Count of elements : 669
    Stream size : 27.9 KiB (0%)
    Title : Français (France)
    Language : French
    Default : No
    Forced : No
    
    Text #15
    ID : 17
    Format : UTF-8
    Codec ID : S_TEXT/UTF8
    Codec ID/Info : UTF-8 Plain Text
    Duration : 37 min 58 s
    Bit rate : 100 b/s
    Count of elements : 669
    Stream size : 27.9 KiB (0%)
    Title : Français (Canada)
    Language : French
    Default : No
    Forced : No
    
    Text #16
    ID : 18
    Format : UTF-8
    Codec ID : S_TEXT/UTF8
    Codec ID/Info : UTF-8 Plain Text
    Duration : 38 min 24 s
    Bit rate : 133 b/s
    Count of elements : 654
    Stream size : 37.6 KiB (0%)
    Title : עברית
    Language : Hebrew
    Default : No
    Forced : No
    
    Text #17
    ID : 19
    Format : UTF-8
    Codec ID : S_TEXT/UTF8
    Codec ID/Info : UTF-8 Plain Text
    Duration : 38 min 24 s
    Bit rate : 243 b/s
    Count of elements : 648
    Stream size : 68.4 KiB (0%)
    Title : हिन्दी
    Language : Hindi
    Default : No
    Forced : No
    
    Text #18
    ID : 20
    Format : UTF-8
    Codec ID : S_TEXT/UTF8
    Codec ID/Info : UTF-8 Plain Text
    Duration : 38 min 24 s
    Bit rate : 94 b/s
    Count of elements : 643
    Stream size : 26.5 KiB (0%)
    Title : magyar
    Language : Hungarian
    Default : No
    Forced : No
    
    Text #19
    ID : 21
    Format : UTF-8
    Codec ID : S_TEXT/UTF8
    Codec ID/Info : UTF-8 Plain Text
    Duration : 38 min 24 s
    Bit rate : 102 b/s
    Count of elements : 637
    Stream size : 28.9 KiB (0%)
    Title : Bahasa Indonesia
    Language : Indonesian
    Default : No
    Forced : No
    
    Text #20
    ID : 22
    Format : UTF-8
    Codec ID : S_TEXT/UTF8
    Codec ID/Info : UTF-8 Plain Text
    Duration : 38 min 26 s
    Bit rate : 100 b/s
    Count of elements : 609
    Stream size : 28.3 KiB (0%)
    Title : Italiano
    Language : Italian
    Default : No
    Forced : No
    
    Text #21
    ID : 23
    Format : UTF-8
    Codec ID : S_TEXT/UTF8
    Codec ID/Info : UTF-8 Plain Text
    Duration : 38 min 24 s
    Bit rate : 87 b/s
    Count of elements : 580
    Stream size : 24.7 KiB (0%)
    Title : 日本語
    Language : Japanese
    Default : No
    Forced : No
    
    Text #22
    ID : 24
    Format : UTF-8
    Codec ID : S_TEXT/UTF8
    Codec ID/Info : UTF-8 Plain Text
    Duration : 38 min 24 s
    Bit rate : 99 b/s
    Count of elements : 644
    Stream size : 27.9 KiB (0%)
    Title : lietuvių
    Language : Lithuanian
    Default : No
    Forced : No
    
    Text #23
    ID : 25
    Format : UTF-8
    Codec ID : S_TEXT/UTF8
    Codec ID/Info : UTF-8 Plain Text
    Duration : 38 min 24 s
    Bit rate : 97 b/s
    Count of elements : 634
    Stream size : 27.5 KiB (0%)
    Title : latviešu
    Language : Latvian
    Default : No
    Forced : No
    
    Text #24
    ID : 26
    Format : UTF-8
    Codec ID : S_TEXT/UTF8
    Codec ID/Info : UTF-8 Plain Text
    Duration : 38 min 24 s
    Bit rate : 104 b/s
    Count of elements : 640
    Stream size : 29.3 KiB (0%)
    Title : Bahasa Melayu
    Language : Malay
    Default : No
    Forced : No
    
    Text #25
    ID : 27
    Format : UTF-8
    Codec ID : S_TEXT/UTF8
    Codec ID/Info : UTF-8 Plain Text
    Duration : 38 min 24 s
    Bit rate : 85 b/s
    Count of elements : 542
    Stream size : 24.2 KiB (0%)
    Title : Nederlands
    Language : Dutch
    Default : No
    Forced : No
    
    Text #26
    ID : 28
    Format : UTF-8
    Codec ID : S_TEXT/UTF8
    Codec ID/Info : UTF-8 Plain Text
    Duration : 38 min 24 s
    Bit rate : 93 b/s
    Count of elements : 629
    Stream size : 26.2 KiB (0%)
    Title : norsk
    Language : Norwegian
    Default : No
    Forced : No
    
    Text #27
    ID : 29
    Format : UTF-8
    Codec ID : S_TEXT/UTF8
    Codec ID/Info : UTF-8 Plain Text
    Duration : 38 min 24 s
    Bit rate : 96 b/s
    Count of elements : 618
    Stream size : 27.0 KiB (0%)
    Title : polski
    Language : Polish
    Default : No
    Forced : No
    
    Text #28
    ID : 30
    Format : UTF-8
    Codec ID : S_TEXT/UTF8
    Codec ID/Info : UTF-8 Plain Text
    Duration : 38 min 24 s
    Bit rate : 92 b/s
    Count of elements : 623
    Stream size : 26.0 KiB (0%)
    Title : Português (Brasil)
    Language : Portuguese
    Default : No
    Forced : No
    
    Text #29
    ID : 31
    Format : UTF-8
    Codec ID : S_TEXT/UTF8
    Codec ID/Info : UTF-8 Plain Text
    Duration : 38 min 24 s
    Bit rate : 94 b/s
    Count of elements : 638
    Stream size : 26.6 KiB (0%)
    Title : Português
    Language : Portuguese
    Default : No
    Forced : No
    
    Text #30
    ID : 32
    Format : UTF-8
    Codec ID : S_TEXT/UTF8
    Codec ID/Info : UTF-8 Plain Text
    Duration : 38 min 24 s
    Bit rate : 155 b/s
    Count of elements : 647
    Stream size : 43.8 KiB (0%)
    Title : Русский
    Language : Russian
    Default : No
    Forced : No
    
    Text #31
    ID : 33
    Format : UTF-8
    Codec ID : S_TEXT/UTF8
    Codec ID/Info : UTF-8 Plain Text
    Duration : 38 min 24 s
    Bit rate : 89 b/s
    Count of elements : 620
    Stream size : 25.2 KiB (0%)
    Title : Slovenčina
    Language : Slovak
    Default : No
    Forced : No
    
    Text #32
    ID : 34
    Format : UTF-8
    Codec ID : S_TEXT/UTF8
    Codec ID/Info : UTF-8 Plain Text
    Duration : 38 min 24 s
    Bit rate : 81 b/s
    Count of elements : 609
    Stream size : 23.0 KiB (0%)
    Title : slovenščina
    Language : Slovenian
    Default : No
    Forced : No
    
    Text #33
    ID : 35
    Format : UTF-8
    Codec ID : S_TEXT/UTF8
    Codec ID/Info : UTF-8 Plain Text
    Duration : 38 min 24 s
    Bit rate : 97 b/s
    Count of elements : 595
    Stream size : 27.3 KiB (0%)
    Title : Svenska
    Language : Swedish
    Default : No
    Forced : No
    
    Text #34
    ID : 36
    Format : UTF-8
    Codec ID : S_TEXT/UTF8
    Codec ID/Info : UTF-8 Plain Text
    Duration : 38 min 24 s
    Bit rate : 323 b/s
    Count of elements : 648
    Stream size : 91.1 KiB (0%)
    Title : தமிழ்
    Language : Tamil
    Default : No
    Forced : No
    
    Text #35
    ID : 37
    Format : UTF-8
    Codec ID : S_TEXT/UTF8
    Codec ID/Info : UTF-8 Plain Text
    Duration : 38 min 24 s
    Bit rate : 268 b/s
    Count of elements : 647
    Stream size : 75.5 KiB (0%)
    Title : తెలుగు
    Language : Telugu
    Default : No
    Forced : No
    
    Text #36
    ID : 38
    Format : UTF-8
    Codec ID : S_TEXT/UTF8
    Codec ID/Info : UTF-8 Plain Text
    Duration : 38 min 24 s
    Bit rate : 255 b/s
    Count of elements : 654
    Stream size : 71.9 KiB (0%)
    Title : ไทย
    Language : Thai
    Default : No
    Forced : No
    
    Text #37
    ID : 39
    Format : UTF-8
    Codec ID : S_TEXT/UTF8
    Codec ID/Info : UTF-8 Plain Text
    Duration : 38 min 24 s
    Bit rate : 148 b/s
    Count of elements : 647
    Stream size : 41.9 KiB (0%)
    Title : українська
    Language : Ukrainian
    Default : No
    Forced : No
    
    Text #38
    ID : 40
    Format : UTF-8
    Codec ID : S_TEXT/UTF8
    Codec ID/Info : UTF-8 Plain Text
    Duration : 38 min 24 s
    Bit rate : 130 b/s
    Count of elements : 641
    Stream size : 36.6 KiB (0%)
    Title : Tiếng Việt
    Language : Vietnamese
    Default : No
    Forced : No
    
    Text #39
    ID : 41
    Format : UTF-8
    Codec ID : S_TEXT/UTF8
    Codec ID/Info : UTF-8 Plain Text
    Duration : 38 min 24 s
    Bit rate : 86 b/s
    Count of elements : 659
    Stream size : 24.2 KiB (0%)
    Title : 中文(繁體)
    Language : Chinese
    Default : No
    Forced : No
    
    Text #40
    ID : 42
    Format : UTF-8
    Codec ID : S_TEXT/UTF8
    Codec ID/Info : UTF-8 Plain Text
    Duration : 38 min 24 s
    Bit rate : 86 b/s
    Count of elements : 659
    Stream size : 24.2 KiB (0%)
    Title : 廣東話
    Language : Chinese
    Default : No
    Forced : No
    
    Text #41
    ID : 43
    Format : UTF-8
    Codec ID : S_TEXT/UTF8
    Codec ID/Info : UTF-8 Plain Text
    Duration : 38 min 24 s
    Bit rate : 88 b/s
    Count of elements : 659
    Stream size : 24.9 KiB (0%)
    Title : 中文(简体)
    Language : Chinese
    Default : No
    Forced : No
    
    SCREENSHOT
    [​IMG]
    DOWNLOAD
     
    tanloc2011, moon2318, kmmhuy and 12 others like this.

Chia sẻ trang này