[Action] James Bond 007 Collection 1080p BluRay REMUX AVC DTS-HD MA 5.1 - Trọn Bộ 26 Phần (Vietsub)

Thảo luận trong 'Bluray Remux' bắt đầu bởi tremocoivo, 27/1/22.

  1. tremocoivo

    tremocoivo Well-Known Member

    Tham gia ngày:
    25/2/10
    Bài viết:
    1,656
    Đã được cảm ơn:
    54,092
    Giới tính:
    Nam

    Điệp Viên 007 - Trọn Bộ 26 Phần (1962-2021)
    James Bond 007 Collection 1080p BluRay REMUX AVC DTS-HD MA 5.1 {Sub Việt Mux Sẵn}

    [​IMG]
    [​IMG]

    Danh sách 26 phần phim về Điệp viên 007 - James Bond:

    01. Dr.No.1962.1080p.Bluray.REMUX.AVC.DTS-HD.MA 5.1-H72
    02. From.Russia.with.Love.1963.1080p.Bluray.REMUX.AVC.DTS-HD.MA.5.1-H72
    03. Goldfinger.1964.BluRay.Remux.1080p.AVC.DTS-HD.MA.5.1-decibeL
    04. Thunderball.1965.1080p.BluRay.REMUX.AVC.DTS-HD.5.1-NA
    05. You.Only.Live.Twice.1967.1080p.BluRay.REMUX.AVC.DTS-HD.MA.5.1-PrivateHD
    06. On.Her.Majesty's.Secret.Service.1969.1080p.BluRay.REMUX.AVC.DTS-HD.MA.5.1-PrivateHD
    07. Diamonds.Are.Forever.1971.1080p.BluRay.REMUX.AVC.DTS-HD.MA.5.1-TRiToN
    08. Live.and.Let.Die.1973.1080p.BluRay.REMUX.AVC.DTS-HD.MA.5.1-TRiToN
    09. The.Man.with.the.Golden.Gun.1974.REPACK.1080p.BluRay.REMUX.AVC.DTS-HD.MA.5.1-TRiToN
    10. The.Spy.Who.Loved.Me.1977.1080p.BluRay.REMUX.AVC.DTS-HD.MA.5.1-TRiToN
    11. Moonraker.1979.1080p.BluRay.REMUX.AVC.DTS-HD.MA.5.1-TRiToN
    12. For.Your.Eyes.Only.1981.1080p.BluRay.REMUX.AVC.DTS-HD.MA.5.1-TRiToN
    13. Octopussy.1983.1080p.BluRay.REMUX.AVC.DTS-HD.MA.5.1-TRiToN
    14. Never.Say.Never.Again.1983.1080p.BluRay.REMUX.AVC.DTS-HD.MA.5.1-TRiToN
    15. A.View.to.a.Kill.1985.1080p.BluRay.REMUX.AVC.DTS-HD.MA.5.1-TRiToN
    16. The.Living.Daylights.1987.1080p.BluRay.REMUX.AVC.DTS-HD.MA.5.1-TRiToN
    17. Licence.to.Kill.1989.1080p.BluRay.REMUX.AVC.DTS-HD.MA.5.1-TRiToN
    18. GoldenEye.1995.1080p.BluRay.REMUX.AVC.DTS-HD.MA.5.1-TRiToN
    19. Tomorrow.Never.Dies.1997.1080p.BluRay.REMUX.AVC.DTS-HD.MA.5.1-TRiToN
    20. The.World.Is.Not.Enough.1999.1080p.BluRay.REMUX.AVC.DTS-HD.MA.5.1-TRiToN
    21. Die.Another.Day.2002.1080p.BluRay.REMUX.AVC.DTS-HD.MA.5.1-TRiToN
    22. Casino.Royale.2006.Uncut.1080p.Hybrid.BluRay.REMUX.AVC.DTS-HD.MA.5.1-EPSiLON
    23. Quantum.of.Solace.2008.1080p.Bluray.REMUX.AVC.DTS-HD.MA.5.1-H72
    24. Skyfall.2012.1080p.BluRay.REMUX.AVC.DTS-HD.MA.5.1-TRiToN
    25. Spectre.2015.1080p.BluRay.REMUX.AVC.DTS-HD.MA.7.1
    26. No.Time.to.Die.2021.1080p.BluRay.REMUX.AVC.TrueHD.Atmos.7.1-TRiToN

    DOWNLOAD TRỌN BỘ
    =============================================================
    MOVIES BY HIEUIT

    Bộ Sưu Tập 4K HDR 10bit x265 HEVC (Vietsub - Siêu Nhẹ - Siêu Nét)
    AppleTV+ TV Show Collection 1080p WEB-DL DD+ 5.1 x264 ~ Bộ Sưu Tập TV Show Của AppleTV+
    DC Comics Animated Movies Collection Bluray REMUX 1080p
    Charmed 1998 Complete Series 1080p BluRay REMUX AVC FLAC 2.0 ~ Bộ Ba Phép Thuật
    Sons of Anarchy Complete Series 1080p DTS-HDMA 5.1 AVC REMUX-FraMeSToR ~ Giang Hồ Đẫm Máu
    The X-Files Complete Series 1080p BluRay Remux AVC DTS-HD MA 5.1-EPSiLON ~ Hồ Sơ Tuyệt Mật
    Smallville Complete Series (2001 - 2011) 10 Season 1080p AMZN WEB-DL + Bluray REMUX
    The Sopranos Complete Series 1080p Blu-ray Remux AVC DTS-HD MA 5.1 ~ Gia Đình Soprano
    The Wire 2002 Complete Series BluRay REMUX 1080p AVC DTS-HDMA 5.1-MrO ~ Đường Dây Tội Phạm
    Avatar: The Last Airbender Complete Series 1080p BluRay REMUX AVC DTS-HD MA 2.0-H72
     
    Chỉnh sửa cuối: 14/4/22
  2. tremocoivo

    tremocoivo Well-Known Member

    Tham gia ngày:
    25/2/10
    Bài viết:
    1,656
    Đã được cảm ơn:
    54,092
    Giới tính:
    Nam

    Tiến Sĩ No (1962)
    Dr.No.1962.1080p.Bluray.REMUX.AVC.DTS-HD.MA 5.1-H72 {Sub Việt Mux Sẵn}

    [​IMG]
    https://www.imdb.com/title/tt0055928/

    Bond (007) là điệp viên hàng đầu của Anh và đang trên đường thực hiện một nhiệm vụ rất thú vị, đó là tìm lời giải cho vụ ám sát một đặc vụ đồng nghiệp của anh. Bond được cử tới Jamacia, nơi mà anh nhập hội cùng Quarrel và đặc vụ CIA, Felix Leiter. Họ đã phải trải qua những cạm bẫy chết người như những con nhện đen khổng lồ, những tay sát thủ nguy hiểm… Bond đã chạm chán kiều nữ Honey Ryder và đối diện với tay giáo sư No ác độc.

    PHP:
    General
    Complete name               
    Dr.No.1962.1080p.Bluray.REMUX.AVC.DTS-HD.MA 5.1-H72_Vietsub.mkv
    Format                      
    Matroska
    Format version              
    Version 4
    File size                   
    24.8 GiB
    Duration                    
    1 h 49 min
    Overall bit rate mode       
    Variable
    Overall bit rate            
    32.4 Mb/s
    Movie name                  
    Dr.No.1962.1080p.Bluray.REMUX.AVC.DTS-HD.MA 5.1-H72
    Encoded date                
    UTC 2022-01-22 14:01:57
    Writing application         
    mkvmerge v61.0.0 ('So'64-bit
    Writing library             
    libebml v1.4.2 libmatroska v1.6.4
    Attachments                 
    poster.jpg

    Video
    ID                          
    1
    Format                      
    AVC
    Format
    /Info                 Advanced Video Codec
    Format profile              
    High@L4.1
    Format settings             
    CABAC 4 Ref Frames
    Format settings
    CABAC      Yes
    Format settings
    Reference  4 frames
    Codec ID                    
    V_MPEG4/ISO/AVC
    Duration                    
    1 h 49 min
    Bit rate mode               
    Variable
    Bit rate                    
    29.3 Mb/s
    Maximum bit rate            
    35.9 Mb/s
    Width                       
    1 920 pixels
    Height                      
    1 080 pixels
    Display aspect ratio        
    16:9
    Frame rate mode             
    Constant
    Frame rate                  
    23.976 (24000/1001FPS
    Color space                 
    YUV
    Chroma subsampling          
    4:2:0
    Bit depth                   
    8 bits
    Scan type                   
    Progressive
    Bits
    /(Pixel*Frame)          : 0.590
    Stream size                 
    22.5 GiB (90%)
    Default                     : 
    Yes
    Forced                      
    No
    Color range                 
    Limited
    Color primaries             
    BT.709
    Transfer characteristics    
    BT.709
    Matrix coefficients         
    BT.709

    Audio
    ID                          
    2
    Format                      
    DTS XLL
    Format
    /Info                 Digital Theater Systems
    Commercial name             
    DTS-HD Master Audio
    Codec ID                    
    A_DTS
    Duration                    
    1 h 49 min
    Bit rate mode               
    Variable
    Bit rate                    
    3 050 kb/s
    Channel
    (s)                  : 6 channels
    Channel layout              
    C L R Ls Rs LFE
    Sampling rate               
    48.0 kHz
    Frame rate                  
    93.750 FPS (512 SPF)
    Bit depth                   24 bits
    Compression mode            
    Lossless
    Stream size                 
    2.34 GiB (9%)
    Language                    English
    Default                     : Yes
    Forced                      
    No

    Text 
    #1
    ID                          3
    Format                      
    UTF-8
    Codec ID                    
    S_TEXT/UTF8
    Codec ID
    /Info               UTF-8 Plain Text
    Duration                    
    1 h 46 min
    Bit rate                    
    67 b/s
    Count of elements           
    961
    Stream size                 
    52.6 KiB (0%)
    Language                    Vietnamese
    Default                     : Yes
    Forced                      
    Yes

    Text 
    #2
    ID                          4
    Format                      
    PGS
    Muxing mode                 
    zlib
    Codec ID                    
    S_HDMV/PGS
    Codec ID
    /Info               Picture based subtitle format used on BDs/HD-DVDs
    Duration                    
    1 h 47 min
    Bit rate                    
    35.4 kb/s
    Count of elements           
    2222
    Stream size                 
    27.3 MiB (0%)
    Language                    English
    Default                     : No
    Forced                      
    No

    Text 
    #3
    ID                          5
    Format                      
    PGS
    Muxing mode                 
    zlib
    Codec ID                    
    S_HDMV/PGS
    Codec ID
    /Info               Picture based subtitle format used on BDs/HD-DVDs
    Duration                    
    1 h 49 min
    Bit rate                    
    65.0 kb/s
    Count of elements           
    3176
    Stream size                 
    50.9 MiB (0%)
    Language                    English
    Default                     : No
    Forced                      
    No

    Menu
    00
    :00:00.000                : (01)00:00:00:000
    00
    :02:50.670                : (02)00:02:50:670
    00
    :06:33.684                : (03)00:06:33:684
    00
    :09:41.914                : (04)00:09:41:914
    00
    :16:26.860                : (05)00:16:26:860
    00
    :19:00.848                : (06)00:19:00:848
    00
    :22:06.491                : (07)00:22:06:491
    00
    :24:32.471                : (08)00:24:32:471
    00
    :26:43.602                : (09)00:26:43:602
    00
    :28:28.123                : (10)00:28:28:123
    00
    :31:22.255                : (11)00:31:22:255
    00
    :36:07.582                : (12)00:36:07:582
    00
    :37:39.257                : (13)00:37:39:257
    00
    :41:18.058                : (14)00:41:18:058
    00
    :44:38.217                : (15)00:44:38:217
    00
    :46:44.676                : (16)00:46:44:676
    00
    :48:18.896                : (17)00:48:18:896
    00
    :51:24.247                : (18)00:51:24:247
    00
    :55:28.575                : (19)00:55:28:575
    00
    :58:50.109                : (20)00:58:50:109
    01
    :01:55.920                : (21)01:01:55:920
    01
    :08:08.125                : (22)01:08:08:125
    01
    :12:39.855                : (23)01:12:39:855
    01
    :15:17.930                : (24)01:15:17:930
    01
    :18:04.304                : (25)01:18:04:304
    01
    :20:54.432                : (26)01:20:54:432
    01
    :26:28.600                : (27)01:26:28:600
    01
    :34:00.760                : (28)01:34:00:760
    01
    :39:03.270                : (29)01:39:03:270
    01
    :43:05.429                : (30)01:43:05:429
    01
    :45:19.021                : (31)01:45:19:021
    01
    :47:30.193                : (32)01:47:30:193


    SCREENSHOT
    [​IMG]
    DOWNLOAD
     
  3. tremocoivo

    tremocoivo Well-Known Member

    Tham gia ngày:
    25/2/10
    Bài viết:
    1,656
    Đã được cảm ơn:
    54,092
    Giới tính:
    Nam

    Tình Yêu Đến Từ Nước Nga (1963)
    From.Russia.with.Love.1963.1080p.Bluray.REMUX.AVC.DTS-HD.MA.5.1-H72 {Sub Việt Mux Sẵn}

    [​IMG]
    https://www.imdb.com/title/tt0057076/

    Là bộ phim thứ 2 thuộc serie phim James Bond - 007 do ngôi sao Sean Connery đóng vai một điệp viên của MI6 - James Bond. Trong phim, James Bond được cử đi hỗ trợ hạ sỹ Tatiana Romanova tại Thổ Nhĩ Kỳ, nơi biệt đội bóng ma lên kế hoạch trả đũa Dr. No.

    PHP:
    General
    Complete name               
    From.Russia.with.Love.1963.1080p.Bluray.REMUX.AVC.DTS-HD.MA.5.1-H72_Vietsub.mkv
    Format                      
    Matroska
    Format version              
    Version 4
    File size                   
    24.4 GiB
    Duration                    
    1 h 55 min
    Overall bit rate mode       
    Variable
    Overall bit rate            
    30.4 Mb/s
    Movie name                  
    From.Russia.with.Love.1963.1080p.Bluray.REMUX.AVC.DTS-HD.MA.5.1-H72
    Encoded date                
    UTC 2022-01-22 14:52:25
    Writing application         
    mkvmerge v61.0.0 ('So'64-bit
    Writing library             
    libebml v1.4.2 libmatroska v1.6.4
    Attachments                 
    poster.jpg

    Video
    ID                          
    1
    Format                      
    AVC
    Format
    /Info                 Advanced Video Codec
    Format profile              
    High@L4.1
    Format settings             
    CABAC 4 Ref Frames
    Format settings
    CABAC      Yes
    Format settings
    Reference  4 frames
    Codec ID                    
    V_MPEG4/ISO/AVC
    Duration                    
    1 h 55 min
    Bit rate mode               
    Variable
    Bit rate                    
    26.5 Mb/s
    Maximum bit rate            
    36.5 Mb/s
    Width                       
    1 920 pixels
    Height                      
    1 080 pixels
    Display aspect ratio        
    16:9
    Frame rate mode             
    Constant
    Frame rate                  
    23.976 (24000/1001FPS
    Color space                 
    YUV
    Chroma subsampling          
    4:2:0
    Bit depth                   
    8 bits
    Scan type                   
    Progressive
    Bits
    /(Pixel*Frame)          : 0.534
    Stream size                 
    21.3 GiB (87%)
    Default                     : 
    Yes
    Forced                      
    No
    Color range                 
    Limited
    Color primaries             
    BT.709
    Transfer characteristics    
    BT.709
    Matrix coefficients         
    BT.709

    Audio
    ID                          
    2
    Format                      
    DTS XLL
    Format
    /Info                 Digital Theater Systems
    Commercial name             
    DTS-HD Master Audio
    Codec ID                    
    A_DTS
    Duration                    
    1 h 55 min
    Bit rate mode               
    Variable
    Bit rate                    
    3 801 kb/s
    Channel
    (s)                  : 6 channels
    Channel layout              
    C L R Ls Rs LFE
    Sampling rate               
    48.0 kHz
    Frame rate                  
    93.750 FPS (512 SPF)
    Bit depth                   24 bits
    Compression mode            
    Lossless
    Stream size                 
    3.06 GiB (13%)
    Language                    English
    Default                     : Yes
    Forced                      
    No

    Text 
    #1
    ID                          3
    Format                      
    PGS
    Muxing mode                 
    zlib
    Codec ID                    
    S_HDMV/PGS
    Codec ID
    /Info               Picture based subtitle format used on BDs/HD-DVDs
    Duration                    
    1 h 54 min
    Bit rate                    
    30.9 kb/s
    Count of elements           
    2842
    Stream size                 
    25.3 MiB (0%)
    Language                    English
    Default                     : No
    Forced                      
    No

    Text 
    #2
    ID                          4
    Format                      
    PGS
    Muxing mode                 
    zlib
    Codec ID                    
    S_HDMV/PGS
    Codec ID
    /Info               Picture based subtitle format used on BDs/HD-DVDs
    Duration                    
    1 h 53 min
    Bit rate                    
    70.2 kb/s
    Count of elements           
    3442
    Stream size                 
    57.2 MiB (0%)
    Language                    English
    Default                     : No
    Forced                      
    No

    Text 
    #3
    ID                          5
    Format                      
    UTF-8
    Codec ID                    
    S_TEXT/UTF8
    Codec ID
    /Info               UTF-8 Plain Text
    Duration                    
    1 h 50 min
    Bit rate                    
    52 b/s
    Count of elements           
    980
    Stream size                 
    42.4 KiB (0%)
    Language                    Vietnamese
    Default                     : Yes
    Forced                      
    Yes

    Menu
    00
    :00:00.000                : (01)00:00:00:000
    00
    :03:10.064                : (02)00:03:10:064
    00
    :05:37.003                : (03)00:05:37:003
    00
    :08:04.192                : (04)00:08:04:192
    00
    :11:16.550                : (05)00:11:16:550
    00
    :14:03.008                : (06)00:14:03:008
    00
    :17:53.280                : (07)00:17:53:280
    00
    :19:34.965                : (08)00:19:34:965
    00
    :24:27.549                : (09)00:24:27:549
    00
    :29:04.492                : (10)00:29:04:492
    00
    :31:36.477                : (11)00:31:36:477
    00
    :33:53.489                : (12)00:33:53:489
    00
    :38:21.173                : (13)00:38:21:173
    00
    :48:53.764                : (14)00:48:53:764
    00
    :51:34.091                : (15)00:51:34:091
    00
    :55:35.165                : (16)00:55:35:165
    00
    :59:50.295                : (17)00:59:50:295
    01
    :03:31.933                : (18)01:03:31:933
    01
    :06:43.457                : (19)01:06:43:457
    01
    :09:55.733                : (20)01:09:55:733
    01
    :12:06.697                : (21)01:12:06:697
    01
    :14:26.879                : (22)01:14:26:879
    01
    :16:16.697                : (23)01:16:16:697
    01
    :20:20.649                : (24)01:20:20:649
    01
    :24:27.520                : (25)01:24:27:520
    01
    :26:31.603                : (26)01:26:31:603
    01
    :36:26.697                : (27)01:36:26:697
    01
    :39:11.820                : (28)01:39:11:820
    01
    :44:09.326                : (29)01:44:09:326
    01
    :45:45.339                : (30)01:45:45:339
    01
    :49:12.712                : (31)01:49:12:712
    01
    :53:37.393                : (32)01:53:37:393

    SCREENSHOT
    [​IMG]
    DOWNLOAD
     
  4. tremocoivo

    tremocoivo Well-Known Member

    Tham gia ngày:
    25/2/10
    Bài viết:
    1,656
    Đã được cảm ơn:
    54,092
    Giới tính:
    Nam

    Ngón Tay Vàng (1964)
    Goldfinger.1964.BluRay.Remux.1080p.AVC.DTS-HD.MA.5.1-decibeL {Sub Việt Mux Sẵn}

    [​IMG]
    https://www.imdb.com/title/tt0058150

    Bond đã quay trở lại và nhiệm vụ kế tiếp của anh là phải đến Fort Knox, nơi mà Auric Goldfinger và những tay chân của hắn đang âm mưu tấn công vào Fort Knox và xóa sạch nền kinh tế thế giới. Để cứu thế giới một lần nữa, Bond cần phải tìm cách để trở thành bạn của Goldfinger, tránh những tay sát thủ và ngay cả phi công riêng của Goldfinger, cô nàng khiêu gợi Pussy Galore. Có thể cô không có tình cảm gì với Bond, nhưng liệu 007 có giúp cô thay đổi suy nghĩ…?

    PHP:
    General
    Complete name               
    Goldfinger.1964.BluRay.Remux.1080p.AVC.DTS-HD.MA.5.1-decibeL_Vietsub.mkv
    Format                      
    Matroska
    Format version              
    Version 4
    File size                   
    24.7 GiB
    Duration                    
    1 h 50 min
    Overall bit rate mode       
    Variable
    Overall bit rate            
    32.1 Mb/s
    Movie name                  
    Goldfinger.1964.BluRay.Remux.1080p.AVC.DTS-HD.MA.5.1-decibeL
    Encoded date                
    UTC 2022-01-22 16:56:45
    Writing application         
    mkvmerge v63.0.0 ('Everything'64-bit
    Writing library             
    libebml v1.4.2 libmatroska v1.6.4
    Attachments                 
    poster.jpg

    Video
    ID                          
    1
    Format                      
    AVC
    Format
    /Info                 Advanced Video Codec
    Format profile              
    High@L4.1
    Format settings             
    CABAC 4 Ref Frames
    Format settings
    CABAC      Yes
    Format settings
    Reference  4 frames
    Codec ID                    
    V_MPEG4/ISO/AVC
    Duration                    
    1 h 50 min
    Bit rate mode               
    Variable
    Bit rate                    
    29.2 Mb/s
    Maximum bit rate            
    35.6 Mb/s
    Width                       
    1 920 pixels
    Height                      
    1 080 pixels
    Display aspect ratio        
    16:9
    Frame rate mode             
    Constant
    Frame rate                  
    23.976 (24000/1001FPS
    Color space                 
    YUV
    Chroma subsampling          
    4:2:0
    Bit depth                   
    8 bits
    Scan type                   
    Progressive
    Bits
    /(Pixel*Frame)          : 0.588
    Stream size                 
    22.5 GiB (91%)
    Title                       h2641080p24 29229 kbps
    Default                     : Yes
    Forced                      
    No
    Color range                 
    Limited
    Color primaries             
    BT.709
    Transfer characteristics    
    BT.709
    Matrix coefficients         
    BT.709

    Audio
    ID                          
    2
    Format                      
    DTS XLL
    Format
    /Info                 Digital Theater Systems
    Commercial name             
    DTS-HD Master Audio
    Codec ID                    
    A_DTS
    Duration                    
    1 h 50 min
    Bit rate mode               
    Variable
    Bit rate                    
    2 900 kb/s
    Channel
    (s)                  : 6 channels
    Channel layout              
    C L R Ls Rs LFE
    Sampling rate               
    48.0 kHz
    Frame rate                  
    93.750 FPS (512 SPF)
    Bit depth                   24 bits
    Compression mode            
    Lossless
    Stream size                 
    2.23 GiB (9%)
    Title                       DTS Master AudioEnglish5.1 channels24 bits48kHz 2900 kbps
    Language                    
    English
    Default                     : Yes
    Forced                      
    No

    Text 
    #1
    ID                          3
    Format                      
    PGS
    Muxing mode                 
    zlib
    Codec ID                    
    S_HDMV/PGS
    Codec ID
    /Info               Picture based subtitle format used on BDs/HD-DVDs
    Duration                    
    1 h 49 min
    Bit rate                    
    28.8 kb/s
    Count of elements           
    2277
    Stream size                 
    22.6 MiB (0%)
    Title                       Subtitle (PGS), English1137 captions
    Language                    
    English
    Default                     : Yes
    Forced                      
    No

    Text 
    #2
    ID                          4
    Format                      
    UTF-8
    Codec ID                    
    S_TEXT/UTF8
    Codec ID
    /Info               UTF-8 Plain Text
    Duration                    
    1 h 45 min
    Bit rate                    
    46 b/s
    Count of elements           
    840
    Stream size                 
    35.8 KiB (0%)
    Language                    Vietnamese
    Default                     : Yes
    Forced                      
    No

    Menu
    00
    :00:00.000                en:The Secret Lab
    00
    :03:19.199                en:Unfinished Business
    00
    :05:02.677                en:Opening Titles
    00
    :07:49.219                en:Welcome to Miami Beach
    00
    :08:53.116                en:Felix
    00
    :09:56.596                en:Goldfinger's Cards
    00:11:34.736                : en:His Talent Exposed
    00:15:55.079                : en:Enter Oddjob and the Golden Girl
    00:17:56.951                : en:James'
    s Breifing
    00
    :22:39.108                en:&ampthe New Toys
    00
    :25:18.559                en:Golf and Gold
    00
    :31:25.634                en:Phantom 337
    00
    :33:37.224                en:A Visit to Geneva
    00
    :36:41.366                en:A Drive in the Country
    00
    :40:41.522                en:Smuggling Is an Art
    00
    :42:59.660                en:Night Chase
    00
    :47:48.574                en:Escape Attempt
    00
    :50:11.800                en:"No, Mr. Bond, I Expect You to Die."
    00:54:09.121                en:Goldfinger's Jet
    00:56:34.182                : en:Activating the Homing Shoe
    01:00:12.567                : en:Pussy Galore'
    s Flying Circus
    01
    :02:56.272                en:Arriving at the Ranch
    01
    :04:45.215                en:"Banks Don't Open on Sunday."
    01:06:47.253                en:Knock Off FtKnox
    01
    :09:50.269                en:James Overhears the Plan
    01
    :13:04.755                en:Gassing the Investors
    01
    :14:44.939                en:A Pressing Engagement
    01
    :20:40.836                en:Operation Grandstand Revealed
    01
    :25:01.138                en:Completely Defenseless
    01
    :27:53.852                en:Fort Knox Takes a Nap
    01
    :38:00.583                en:Showdown with Oddjob
    01
    :45:29.532                en:Credits



    SCREENSHOT
    [​IMG]
    DOWNLOAD
     
    Trung Pump, thoquoc2009 and upmitom like this.
  5. dynaflats

    dynaflats Member

    Tham gia ngày:
    28/11/21
    Bài viết:
    28
    Đã được cảm ơn:
    13
    Cám ơn nhiều.
     
  6. tremocoivo

    tremocoivo Well-Known Member

    Tham gia ngày:
    25/2/10
    Bài viết:
    1,656
    Đã được cảm ơn:
    54,092
    Giới tính:
    Nam

    Quả Cầu Sấm Sét (1965)
    04. Thunderball.1965.1080p.BluRay.REMUX.AVC.DTS-HD.5.1-NA {Sub Việt Mux Sẵn}

    [​IMG]
    https://www.imdb.com/title/tt0059800
    Lần này điệp viên 007 nhận một nhiệm vụ rất khó khăn, phải ngăn chặn một cuộc chiến tranh hạt nhân sắp xảy ra mà hậu quả của nó không thể lường trước được. Liệu chàng điệp viên đào hoa có hoàn thành được nhiệm vụ của mình không ,cái tật mê gái của 007 sẽ hại anh chàng như thế nào?

    Mã:
    General
    Complete name               : Thunderball.1965.1080p.BluRay.REMUX.AVC.DTS-HD.5.1-NA_Vietsub.mkv
    Format                      : Matroska
    Format version              : Version 4
    File size                   : 24.3 GiB
    Duration                    : 2 h 10 min
    Overall bit rate mode       : Variable
    Overall bit rate            : 26.6 Mb/s
    Movie name                  : Thunderball
    Encoded date                : UTC 2022-01-22 16:31:02
    Writing application         : mkvmerge v63.0.0 ('Everything') 64-bit
    Writing library             : libebml v1.4.2 + libmatroska v1.6.4
    Attachments                 : poster.jpg
    
    Video
    ID                          : 1
    ID in the original source m : 4113 (0x1011)
    Format                      : AVC
    Format/Info                 : Advanced Video Codec
    Format profile              : [email protected]
    Format settings             : CABAC / 4 Ref Frames
    Format settings, CABAC      : Yes
    Format settings, Reference  : 4 frames
    Codec ID                    : V_MPEG4/ISO/AVC
    Duration                    : 2 h 10 min
    Bit rate mode               : Variable
    Bit rate                    : 23.2 Mb/s
    Maximum bit rate            : 38.0 Mb/s
    Width                       : 1 920 pixels
    Height                      : 1 080 pixels
    Display aspect ratio        : 16:9
    Frame rate mode             : Constant
    Frame rate                  : 23.976 (24000/1001) FPS
    Color space                 : YUV
    Chroma subsampling          : 4:2:0
    Bit depth                   : 8 bits
    Scan type                   : Progressive
    Bits/(Pixel*Frame)          : 0.467
    Stream size                 : 21.1 GiB (87%)
    Language                    : English
    Default                     : No
    Forced                      : No
    Color range                 : Limited
    Color primaries             : BT.709
    Transfer characteristics    : BT.709
    Matrix coefficients         : BT.709
    Original source medium      : Blu-ray
    
    Audio
    ID                          : 2
    ID in the original source m : 4352 (0x1100)
    Format                      : DTS XLL
    Format/Info                 : Digital Theater Systems
    Commercial name             : DTS-HD Master Audio
    Codec ID                    : A_DTS
    Duration                    : 2 h 10 min
    Bit rate mode               : Variable
    Bit rate                    : 3 436 kb/s
    Channel(s)                  : 6 channels
    Channel layout              : C L R Ls Rs LFE
    Sampling rate               : 48.0 kHz
    Frame rate                  : 93.750 FPS (512 SPF)
    Bit depth                   : 24 bits
    Compression mode            : Lossless
    Stream size                 : 3.13 GiB (13%)
    Title                       : Surround 5.1
    Language                    : English
    Default                     : Yes
    Forced                      : No
    Original source medium      : Blu-ray
    
    Text #1
    ID                          : 3
    ID in the original source m : 4608 (0x1200)
    Format                      : PGS
    Muxing mode                 : zlib
    Codec ID                    : S_HDMV/PGS
    Codec ID/Info               : Picture based subtitle format used on BDs/HD-DVDs
    Duration                    : 2 h 7 min
    Bit rate                    : 26.6 kb/s
    Count of elements           : 2012
    Stream size                 : 24.3 MiB (0%)
    Language                    : English
    Default                     : No
    Forced                      : No
    Original source medium      : Blu-ray
    
    Text #2
    ID                          : 4
    Format                      : UTF-8
    Codec ID                    : S_TEXT/UTF8
    Codec ID/Info               : UTF-8 Plain Text
    Duration                    : 2 h 7 min
    Bit rate                    : 43 b/s
    Count of elements           : 1055
    Stream size                 : 40.4 KiB (0%)
    Language                    : Vietnamese
    Default                     : Yes
    Forced                      : No
    
    Menu
    00:00:00.000                : en:Chapter 01
    00:04:44.742                : en:Chapter 02
    00:07:43.796                : en:Chapter 03
    00:11:33.192                : en:Chapter 04
    00:18:27.564                : en:Chapter 05
    00:22:46.448                : en:Chapter 06
    00:26:13.029                : en:Chapter 07
    00:29:21.551                : en:Chapter 08
    00:37:03.137                : en:Chapter 09
    00:38:49.368                : en:Chapter 10
    00:44:02.681                : en:Chapter 11
    00:48:42.210                : en:Chapter 12
    00:54:17.545                : en:Chapter 13
    00:58:49.150                : en:Chapter 14
    01:01:38.111                : en:Chapter 15
    01:02:55.938                : en:Chapter 16
    01:06:17.515                : en:Chapter 17
    01:14:24.668                : en:Chapter 18
    01:21:23.420                : en:Chapter 19
    01:25:58.111                : en:Chapter 20
    01:28:53.286                : en:Chapter 21
    01:31:55.343                : en:Chapter 22
    01:36:59.855                : en:Chapter 23
    01:41:45.099                : en:Chapter 24
    01:48:36.176                : en:Chapter 25
    01:51:19.673                : en:Chapter 26
    01:53:14.621                : en:Chapter 27
    01:55:54.155                : en:Chapter 28
    02:03:29.527                : en:Chapter 29
    02:05:03.078                : en:Chapter 30
    02:08:10.933                : en:Chapter 31
    02:09:31.054                : en:Chapter 32
    
    
    
    [​IMG]
    SCREENSHOT
    DOWNLOAD
     
    Trung Pump and blackdevil1995 like this.
  7. tremocoivo

    tremocoivo Well-Known Member

    Tham gia ngày:
    25/2/10
    Bài viết:
    1,656
    Đã được cảm ơn:
    54,092
    Giới tính:
    Nam

    Anh Chỉ Sống Hai Lần (1967)
    05. You.Only.Live.Twice.1967.1080p.BluRay.REMUX.AVC.DTS-HD.MA.5.1-PrivateHD {Sub Việt Mux Sẵn}

    [​IMG]
    https://www.imdb.com/title/tt0062512

    Khi một chiếc tàu vũ trụ của Mỹ gặp sự cố, chính phủ Mỹ cho rằng người Nga đứng đằng sau vụ này và rất có thể một cuộc chiến tranh thế giới thứ 3 sẽ nổ ra. Chính phủ Anh thì lại nghi ngờ rằng có những thế lực khác đang ngấm ngầm phá hoại vì chiếc phi thuyền bị rơi xuống gần vùng Nhật Bản. James Bond đã khám phá ra sự thật: tổ chức SPECTRE chính là kẻ đừng đằng sau chuyện này, động cơ của chúng thật mờ ảo. Nhiệm vụ của Bond là phải tìm ra nơi chiếc tàu bay bị giam giữ trước khi Mỹ-Nga phát động cuộc chiến tranh nhân loại...

    Mã:
    General
    Complete name               : You.Only.Live.Twice.1967.1080p.BluRay.REMUX.AVC.DTS-HD.MA.5.1-PrivateHD_Vietsub.mkv
    Format                      : Matroska
    Format version              : Version 4
    File size                   : 25.1 GiB
    Duration                    : 1 h 56 min
    Overall bit rate mode       : Variable
    Overall bit rate            : 30.8 Mb/s
    Movie name                  : You Only Live Twice (1967)
    Encoded date                : UTC 2022-01-22 16:39:14
    Writing application         : mkvmerge v63.0.0 ('Everything') 64-bit
    Writing library             : libebml v1.4.2 + libmatroska v1.6.4
    Attachments                 : poster.jpg
    
    Video
    ID                          : 1
    ID in the original source m : 4113 (0x1011)
    Format                      : AVC
    Format/Info                 : Advanced Video Codec
    Format profile              : [email protected]
    Format settings             : CABAC / 4 Ref Frames
    Format settings, CABAC      : Yes
    Format settings, Reference  : 4 frames
    Codec ID                    : V_MPEG4/ISO/AVC
    Duration                    : 1 h 56 min
    Bit rate mode               : Variable
    Bit rate                    : 26.9 Mb/s
    Maximum bit rate            : 35.0 Mb/s
    Width                       : 1 920 pixels
    Height                      : 1 080 pixels
    Display aspect ratio        : 16:9
    Frame rate mode             : Constant
    Frame rate                  : 23.976 (24000/1001) FPS
    Color space                 : YUV
    Chroma subsampling          : 4:2:0
    Bit depth                   : 8 bits
    Scan type                   : Progressive
    Bits/(Pixel*Frame)          : 0.541
    Stream size                 : 22.0 GiB (87%)
    Language                    : English
    Default                     : No
    Forced                      : No
    Original source medium      : Blu-ray
    
    Audio
    ID                          : 2
    ID in the original source m : 4361 (0x1109)
    Format                      : DTS XLL
    Format/Info                 : Digital Theater Systems
    Commercial name             : DTS-HD Master Audio
    Codec ID                    : A_DTS
    Duration                    : 1 h 56 min
    Bit rate mode               : Variable
    Bit rate                    : 3 861 kb/s
    Channel(s)                  : 6 channels
    Channel layout              : C L R Ls Rs LFE
    Sampling rate               : 48.0 kHz
    Frame rate                  : 93.750 FPS (512 SPF)
    Bit depth                   : 24 bits
    Compression mode            : Lossless
    Stream size                 : 3.15 GiB (13%)
    Title                       : DTS-HD MA Surround 5.1
    Language                    : English
    Default                     : Yes
    Forced                      : No
    Original source medium      : Blu-ray
    
    Text #1
    ID                          : 3
    ID in the original source m : 4609 (0x1201)
    Format                      : PGS
    Muxing mode                 : zlib
    Codec ID                    : S_HDMV/PGS
    Codec ID/Info               : Picture based subtitle format used on BDs/HD-DVDs
    Duration                    : 1 h 56 min
    Bit rate                    : 21.8 kb/s
    Count of elements           : 1720
    Stream size                 : 18.1 MiB (0%)
    Language                    : English
    Default                     : No
    Forced                      : No
    Original source medium      : Blu-ray
    
    Text #2
    ID                          : 4
    Format                      : UTF-8
    Codec ID                    : S_TEXT/UTF8
    Codec ID/Info               : UTF-8 Plain Text
    Duration                    : 1 h 55 min
    Bit rate                    : 47 b/s
    Count of elements           : 865
    Stream size                 : 40.2 KiB (0%)
    Language                    : Vietnamese
    Default                     : Yes
    Forced                      : No
    
    Menu
    00:00:00.000                : en:Chapter 01
    00:05:02.093                : en:Chapter 02
    00:06:10.536                : en:Chapter 03
    00:08:54.075                : en:Chapter 04
    00:11:49.375                : en:Chapter 05
    00:15:23.088                : en:Chapter 06
    00:19:25.914                : en:Chapter 07
    00:24:18.915                : en:Chapter 08
    00:28:19.656                : en:Chapter 09
    00:31:28.720                : en:Chapter 10
    00:33:09.112                : en:Chapter 11
    00:36:14.589                : en:Chapter 12
    00:40:48.070                : en:Chapter 13
    00:44:17.821                : en:Chapter 14
    00:46:59.817                : en:Chapter 15
    00:51:13.779                : en:Chapter 16
    00:54:37.274                : en:Chapter 17
    00:58:58.701                : en:Chapter 18
    01:03:27.845                : en:Chapter 19
    01:09:01.971                : en:Chapter 20
    01:12:26.717                : en:Chapter 21
    01:14:07.067                : en:Chapter 22
    01:17:33.649                : en:Chapter 23
    01:20:25.904                : en:Chapter 24
    01:24:25.685                : en:Chapter 25
    01:28:42.734                : en:Chapter 26
    01:34:54.647                : en:Chapter 27
    01:35:49.994                : en:Chapter 28
    01:38:13.178                : en:Chapter 29
    01:44:26.301                : en:Chapter 30
    01:48:19.534                : en:Chapter 31
    01:53:25.507                : en:Chapter 32
    
    
    

    SCREENSHOT
    [​IMG]
    DOWNLOAD
     
    Trung Pump and blackdevil1995 like this.
  8. tremocoivo

    tremocoivo Well-Known Member

    Tham gia ngày:
    25/2/10
    Bài viết:
    1,656
    Đã được cảm ơn:
    54,092
    Giới tính:
    Nam

    Điệp Vụ Nữ Hoàng (1969)
    06. On.Her.Majesty's.Secret.Service.1969.1080p.BluRay.REMUX.AVC.DTS-HD.MA.5.1-PrivateHD {Sub Việt Mux Sẵn}

    [​IMG]
    https://www.imdb.com/title/tt0064757/

    MI6 không thể liên lạc được với James Bond trong lúc những thông tin xấu về SPECTRE - một tập đoàn tội phạm công nghệ cao - liên tiếp được gửi tới. Trong khi đó, một cuộc gặp gỡ tình cờ biến James Bond thành vị cứu tinh không mong đợi của một thiếu nữ muốn nhảy xuống biển tự tử. Hai người đàn ông xuất hiện, tấn công chàng điệp viên người Anh. James Bond giành chiến thắng, nhưng thiếu nữ biến mất. Ngay sau đó, tại một sòng bạc, anh gặp lại cô gái và lại cứu cô một lần nữa. Hàng loạt biến cố khiến họ hiểu nhau hơn và mọi hiểu nhầm được kết thúc ở trên giường. Buổi sáng hôm sau, thiếu nữ biến mất, còn James bị mấy gã đàn ông bắt cóc tới một biệt thự sang trọng...

    Mã:
    General
    Complete name               : On.Her.Majesty's.Secret.Service.1969.1080p.BluRay.REMUX.AVC.DTS-HD.MA.5.1-PrivateHD_Vietsub.mkv
    Format                      : Matroska
    Format version              : Version 4
    File size                   : 27.1 GiB
    Duration                    : 2 h 22 min
    Overall bit rate mode       : Variable
    Overall bit rate            : 27.3 Mb/s
    Movie name                  : On Her Majesty's Secret Service (1969)
    Encoded date                : UTC 2022-01-22 16:47:31
    Writing application         : mkvmerge v63.0.0 ('Everything') 64-bit
    Writing library             : libebml v1.4.2 + libmatroska v1.6.4
    Attachments                 : poster.jpg
    
    Video
    ID                          : 1
    ID in the original source m : 4113 (0x1011)
    Format                      : AVC
    Format/Info                 : Advanced Video Codec
    Format profile              : [email protected]
    Format settings             : CABAC / 4 Ref Frames
    Format settings, CABAC      : Yes
    Format settings, Reference  : 4 frames
    Codec ID                    : V_MPEG4/ISO/AVC
    Duration                    : 2 h 22 min
    Bit rate mode               : Variable
    Bit rate                    : 23.1 Mb/s
    Maximum bit rate            : 32.0 Mb/s
    Width                       : 1 920 pixels
    Height                      : 1 080 pixels
    Display aspect ratio        : 16:9
    Frame rate mode             : Constant
    Frame rate                  : 23.976 (24000/1001) FPS
    Color space                 : YUV
    Chroma subsampling          : 4:2:0
    Bit depth                   : 8 bits
    Scan type                   : Progressive
    Bits/(Pixel*Frame)          : 0.465
    Stream size                 : 23.0 GiB (85%)
    Language                    : English
    Default                     : No
    Forced                      : No
    Original source medium      : Blu-ray
    
    Audio
    ID                          : 2
    ID in the original source m : 4352 (0x1100)
    Format                      : DTS XLL
    Format/Info                 : Digital Theater Systems
    Commercial name             : DTS-HD Master Audio
    Codec ID                    : A_DTS
    Duration                    : 2 h 22 min
    Bit rate mode               : Variable
    Bit rate                    : 4 163 kb/s
    Channel(s)                  : 6 channels
    Channel layout              : C L R Ls Rs LFE
    Sampling rate               : 48.0 kHz
    Frame rate                  : 93.750 FPS (512 SPF)
    Bit depth                   : 24 bits
    Compression mode            : Lossless
    Stream size                 : 4.14 GiB (15%)
    Title                       : DTS-HD MA Surround 5.1
    Language                    : English
    Default                     : Yes
    Forced                      : No
    Original source medium      : Blu-ray
    
    Text #1
    ID                          : 3
    ID in the original source m : 4608 (0x1200)
    Format                      : PGS
    Muxing mode                 : zlib
    Codec ID                    : S_HDMV/PGS
    Codec ID/Info               : Picture based subtitle format used on BDs/HD-DVDs
    Duration                    : 2 h 21 min
    Bit rate                    : 25.2 kb/s
    Count of elements           : 2132
    Stream size                 : 25.5 MiB (0%)
    Language                    : English
    Default                     : No
    Forced                      : No
    Original source medium      : Blu-ray
    
    Text #2
    ID                          : 4
    Format                      : UTF-8
    Codec ID                    : S_TEXT/UTF8
    Codec ID/Info               : UTF-8 Plain Text
    Duration                    : 2 h 20 min
    Bit rate                    : 54 b/s
    Count of elements           : 1120
    Stream size                 : 56.2 KiB (0%)
    Language                    : Vietnamese
    Default                     : Yes
    Forced                      : No
    
    Menu
    00:00:00.000                : en:Chapter 01
    00:01:28.254                : en:Chapter 02
    00:06:56.833                : en:Chapter 03
    00:09:28.442                : en:Chapter 04
    00:14:07.304                : en:Chapter 05
    00:15:43.442                : en:Chapter 06
    00:19:43.932                : en:Chapter 07
    00:26:47.105                : en:Chapter 08
    00:30:36.251                : en:Chapter 09
    00:34:59.013                : en:Chapter 10
    00:37:13.314                : en:Chapter 11
    00:43:52.129                : en:Chapter 12
    00:47:43.026                : en:Chapter 13
    00:54:49.869                : en:Chapter 14
    00:57:09.217                : en:Chapter 15
    01:02:37.253                : en:Chapter 16
    01:06:04.669                : en:Chapter 17
    01:13:21.063                : en:Chapter 18
    01:18:08.058                : en:Chapter 19
    01:22:19.184                : en:Chapter 20
    01:29:14.932                : en:Chapter 21
    01:31:36.282                : en:Chapter 22
    01:38:32.197                : en:Chapter 23
    01:44:17.668                : en:Chapter 24
    01:48:26.625                : en:Chapter 25
    01:53:53.034                : en:Chapter 26
    01:58:39.320                : en:Chapter 27
    02:00:46.906                : en:Chapter 28
    02:05:41.867                : en:Chapter 29
    02:09:09.908                : en:Chapter 30
    02:11:52.404                : en:Chapter 31
    02:15:41.758                : en:Chapter 32
    
    
    

    SCREENSHOT
    [​IMG]
    DOWNLOAD
     
    Trung Pump and blackdevil1995 like this.
  9. grandthorn

    grandthorn Active Member

    Tham gia ngày:
    3/10/10
    Bài viết:
    557
    Đã được cảm ơn:
    59
    mấy cái poster cũ đẹp phết
     
    tremocoivo cảm ơn bài này.
  10. tremocoivo

    tremocoivo Well-Known Member

    Tham gia ngày:
    25/2/10
    Bài viết:
    1,656
    Đã được cảm ơn:
    54,092
    Giới tính:
    Nam

    Kim Cương Vĩnh Cửu (1971)
    07. Diamonds.Are.Forever.1971.1080p.BluRay.REMUX.AVC.DTS-HD.MA.5.1-TRiToN {Sub Việt Mux Sẵn}

    [​IMG]
    https://www.imdb.com/title/tt0066995

    Khi chính phủ Anh nghi ngờ sự tồn tại của một tổ chức ăn trộm kim cương toàn cầu, James Bond đã bị lôi vào cuộc điều tra. Anh sớm phát hiện ra vấn đề và tới Mỹ nơi mà ông chủ của một sòng bạc casino nằm trong diện nghi vấn. Tuy nhiên, mọi nghi ngờ đã đổ dồn về phía Ernst Stavro Blofeld và 007 đã chắc chắn biết về những kế hoạch của hắn.

    Mã:
    General
    Complete name               : Diamonds.Are.Forever.1971.1080p.BluRay.REMUX.AVC.DTS-HD.MA.5.1-TRiToN_Vietsub.mkv
    Format                      : Matroska
    Format version              : Version 4
    File size                   : 29.4 GiB
    Duration                    : 2 h 0 min
    Overall bit rate mode       : Variable
    Overall bit rate            : 35.0 Mb/s
    Movie name                  : Diamonds Are Forever (1971)
    Encoded date                : UTC 2022-01-22 17:05:15
    Writing application         : mkvmerge v63.0.0 ('Everything') 64-bit
    Writing library             : libebml v1.4.2 + libmatroska v1.6.4
    Attachments                 : poster.jpg
    IMDB                        : tt0066995
    TMDB                        : movie/681
    
    Video
    ID                          : 1
    Format                      : AVC
    Format/Info                 : Advanced Video Codec
    Format profile              : [email protected]
    Format settings             : CABAC / 4 Ref Frames
    Format settings, CABAC      : Yes
    Format settings, Reference  : 4 frames
    Codec ID                    : V_MPEG4/ISO/AVC
    Duration                    : 2 h 0 min
    Bit rate mode               : Variable
    Bit rate                    : 30.9 Mb/s
    Maximum bit rate            : 32.0 Mb/s
    Width                       : 1 920 pixels
    Height                      : 1 080 pixels
    Display aspect ratio        : 16:9
    Frame rate mode             : Constant
    Frame rate                  : 23.976 (24000/1001) FPS
    Color space                 : YUV
    Chroma subsampling          : 4:2:0
    Bit depth                   : 8 bits
    Scan type                   : Progressive
    Bits/(Pixel*Frame)          : 0.622
    Stream size                 : 25.9 GiB (88%)
    Title                       : MPEG-4 AVC Video / 31080 kbps / 1080p / 23.976 fps / 16:9 / High Profile 4.1
    Language                    : zxx
    Default                     : Yes
    Forced                      : No
    
    Audio
    ID                          : 2
    Format                      : DTS XLL
    Format/Info                 : Digital Theater Systems
    Commercial name             : DTS-HD Master Audio
    Codec ID                    : A_DTS
    Duration                    : 2 h 0 min
    Bit rate mode               : Variable
    Bit rate                    : 4 061 kb/s
    Channel(s)                  : 6 channels
    Channel layout              : C L R Ls Rs LFE
    Sampling rate               : 48.0 kHz
    Frame rate                  : 93.750 FPS (512 SPF)
    Bit depth                   : 24 bits
    Compression mode            : Lossless
    Stream size                 : 3.41 GiB (12%)
    Title                       : DTS-HD Master Audio / 5.1 / 48 kHz / 4061 kbps / 24-bit
    Language                    : English
    Default                     : Yes
    Forced                      : No
    
    Text
    ID                          : 3
    Format                      : UTF-8
    Codec ID                    : S_TEXT/UTF8
    Codec ID/Info               : UTF-8 Plain Text
    Duration                    : 1 h 58 min
    Bit rate                    : 52 b/s
    Count of elements           : 985
    Stream size                 : 45.6 KiB (0%)
    Language                    : Vietnamese
    Default                     : Yes
    Forced                      : No
    
    Menu
    00:00:00.000                : en:Opening Sequence
    00:04:56.171                : en:Diamonds Are Forever
    00:07:45.757                : en:Plain Solid Work
    00:10:31.464                : en:Almost Like a Cruise
    00:14:43.299                : en:Bait and Switch
    00:17:15.826                : en:Proper Identification
    00:21:31.457                : en:Killing Bond
    00:25:37.536                : en:One's Brother's Body
    00:29:11.458                : en:Final Journey
    00:34:10.882                : en:Dead Tree
    00:36:51.584                : en:Plenty of Help
    00:39:36.165                : en:Breakfast with Tiffany
    00:43:57.593                : en:What a Circus
    00:49:59.663                : en:The Next Link
    00:51:45.894                : en:Follow Those Rocks
    00:56:34.057                : en:The Little People
    00:59:17.012                : en:Four-Wheel Drive?
    01:03:33.643                : en:A Tight Squeeze
    01:08:01.286                : en:A Trip Upstairs
    01:12:56.163                : en:"Double Jeopardy"
    01:18:34.960                : en:"Try and Try Again"
    01:20:29.575                : en:Walking His Rat
    01:23:11.737                : en:Funny Voices
    01:30:21.958                : en:Wild Kingdom
    01:32:01.641                : en:Unconvincing Disguise
    01:33:06.498                : en:Where's The Satellite?
    01:36:06.010                : en:Nothing in Baja
    01:37:59.373                : en:Cleaning Up the World
    01:41:39.885                : en:Any Sensible Animal
    01:47:22.811                : en:"Stupid Fools"
    01:54:13.972                : en:Bombe Surprise
    01:58:34.357                : en:End Credits
    

    SCREENSHOT
    [​IMG]
    DOWNLOAD
     
    elhoho143 and Trung Pump like this.
  11. tremocoivo

    tremocoivo Well-Known Member

    Tham gia ngày:
    25/2/10
    Bài viết:
    1,656
    Đã được cảm ơn:
    54,092
    Giới tính:
    Nam

    Sống Và Hãy Chết (1973)
    08. Live.and.Let.Die.1973.1080p.BluRay.REMUX.AVC.DTS-HD.MA.5.1-TRiToN {Sub Việt Mux Sẵn}

    [​IMG]
    https://www.imdb.com/title/tt0070328/

    Trong phần phim Live And Let Die, James Bond tới thành phố New York để điều tra. Nhưng ngay khi Bond tới New York, tài xế của anh bị giết chết khi đưa anh tới gặp điệp viên Felix Leiter của CIA. Trong quá trình truy tìm kẻ giết người lái xe, Bond gặp “ngài Big”, tên trùm xã hội đen. Một trong những thuộc hạ thân tín của tên này là Solitaire có khả năng biết trước hiện tại và tương lai bằng bài tây. đã tiết lộ “ngài Big” dự định phân phối heroin ra khắp thế giới. Cũng chính lúc này, người của Big bắt được Bond và Solitaire tại sân bay quốc tế New Orleans. Cuộc đối đầu giữa Bond và tổ chức tội phạm của Big bước vào thời điểm quyết liệt nhất…

    Mã:
    General
    Complete name               : Live.and.Let.Die.1973.1080p.BluRay.REMUX.AVC.DTS-HD.MA.5.1-TRiToN_Vietsub.mkv
    Format                      : Matroska
    Format version              : Version 4
    File size                   : 27.9 GiB
    Duration                    : 2 h 1 min
    Overall bit rate mode       : Variable
    Overall bit rate            : 32.8 Mb/s
    Movie name                  : Live and Let Die (1973)
    Encoded date                : UTC 2022-01-22 15:43:47
    Writing application         : mkvmerge v63.0.0 ('Everything') 64-bit
    Writing library             : libebml v1.4.2 + libmatroska v1.6.4
    Attachments                 : poster.jpg
    IMDB                        : tt0070328
    TMDB                        : movie/253
    
    Video
    ID                          : 1
    Format                      : AVC
    Format/Info                 : Advanced Video Codec
    Format profile              : [email protected]
    Format settings             : CABAC / 4 Ref Frames
    Format settings, CABAC      : Yes
    Format settings, Reference  : 4 frames
    Codec ID                    : V_MPEG4/ISO/AVC
    Duration                    : 2 h 1 min
    Bit rate mode               : Variable
    Bit rate                    : 29.1 Mb/s
    Maximum bit rate            : 35.6 Mb/s
    Width                       : 1 920 pixels
    Height                      : 1 080 pixels
    Display aspect ratio        : 16:9
    Frame rate mode             : Constant
    Frame rate                  : 23.976 (24000/1001) FPS
    Color space                 : YUV
    Chroma subsampling          : 4:2:0
    Bit depth                   : 8 bits
    Scan type                   : Progressive
    Bits/(Pixel*Frame)          : 0.586
    Stream size                 : 24.8 GiB (89%)
    Title                       : MPEG-4 AVC Video / 29143 kbps / 1080p / 23.976 fps / 16:9 / High Profile 4.1
    Language                    : zxx
    Default                     : Yes
    Forced                      : No
    Color range                 : Limited
    Color primaries             : BT.709
    Transfer characteristics    : BT.709
    Matrix coefficients         : BT.709
    
    Audio
    ID                          : 2
    Format                      : DTS XLL
    Format/Info                 : Digital Theater Systems
    Commercial name             : DTS-HD Master Audio
    Codec ID                    : A_DTS
    Duration                    : 2 h 1 min
    Bit rate mode               : Variable
    Bit rate                    : 3 631 kb/s
    Channel(s)                  : 6 channels
    Channel layout              : C L R Ls Rs LFE
    Sampling rate               : 48.0 kHz
    Frame rate                  : 93.750 FPS (512 SPF)
    Bit depth                   : 24 bits
    Compression mode            : Lossless
    Stream size                 : 3.09 GiB (11%)
    Title                       : DTS-HD Master Audio / 5.1 / 48 kHz / 3631 kbps / 24-bit
    Language                    : English
    Default                     : Yes
    Forced                      : No
    
    Text #1
    ID                          : 3
    Format                      : PGS
    Muxing mode                 : zlib
    Codec ID                    : S_HDMV/PGS
    Codec ID/Info               : Picture based subtitle format used on BDs/HD-DVDs
    Duration                    : 1 h 58 min
    Bit rate                    : 22.8 kb/s
    Count of elements           : 1600
    Stream size                 : 19.4 MiB (0%)
    Language                    : English
    Default                     : No
    Forced                      : No
    
    Text #2
    ID                          : 4
    Format                      : PGS
    Muxing mode                 : zlib
    Codec ID                    : S_HDMV/PGS
    Codec ID/Info               : Picture based subtitle format used on BDs/HD-DVDs
    Duration                    : 2 h 0 min
    Bit rate                    : 24.9 kb/s
    Count of elements           : 1943
    Stream size                 : 21.5 MiB (0%)
    Title                       : SDH
    Language                    : English
    Default                     : No
    Forced                      : No
    
    Text #3
    ID                          : 5
    Format                      : UTF-8
    Codec ID                    : S_TEXT/UTF8
    Codec ID/Info               : UTF-8 Plain Text
    Duration                    : 1 h 58 min
    Bit rate                    : 45 b/s
    Count of elements           : 839
    Stream size                 : 39.9 KiB (0%)
    Language                    : Vietnamese
    Default                     : Yes
    Forced                      : Yes
    
    Menu
    00:00:00.000                : en:Logos/United Nations
    00:04:56.129                : en:Funeral for Two
    00:07:37.874                : en:Snake Dance
    00:12:31.167                : en:Live and Let Die/ OP Credits
    00:17:57.410                : en:Magnetic Closet Case
    00:22:36.397                : en:Road Rage
    00:26:31.381                : en:Recorded Speech
    00:28:49.853                : en:"Oh Cult Voodoo"
    00:30:33.582                : en:Tailing a "Cue Ball"
    00:34:46.126                : en:"Filet of Soul"
    00:38:19.297                : en:It's In the Cards
    00:41:54.887                : en:Cia Saves the Spy
    00:46:54.061                : en:"Man Who Cannot Die"
    00:51:06.939                : en:Bugged and Snaked
    00:54:51.497                : en:"Mrs. Bond?"
    00:57:18.727                : en:Morning Fishing
    01:03:02.278                : en:Future Teller
    01:04:58.812                : en:Double Agent
    01:07:06.397                : en:"Where Is Bond Now?"
    01:10:47.702                : en:Lookout Knockout
    01:14:53.614                : en:Blasphemous Bond
    01:19:29.223                : en:Out of Sight
    01:26:17.714                : en:Following Scarecrows
    01:31:55.510                : en:Copter/Cop Attack
    01:35:48.826                : en:"Valuable Piece"
    01:40:27.521                : en:Cab Capture
    01:44:50.284                : en:"Let's Just Wing It"
    01:47:40.746                : en:Soulful Funeral
    01:49:41.033                : en:Live and Let Die
    01:55:33.927                : en:Unmasked Man and Plan
    01:56:30.817                : en:Solitaire/Death Card
    02:00:05.990                : en:"Feeding Time"
    

    SCREENSHOT
    [​IMG]
    DOWNLOAD
     
    Trung Pump cảm ơn bài này.

Chia sẻ trang này