[4K REMUX] Venom 2018 UHD BluRay 2160p TrueHD Atmos 7.1 HEVC REMUX-FraMeSToR

Thảo luận trong '4K' bắt đầu bởi adm820, 10/12/18.

  1. adm820

    adm820 Moderator Thành viên BQT

    Tham gia ngày:
    1/12/10
    Bài viết:
    17,300
    Đã được cảm ơn:
    324,921
    Giới tính:
    Nam
    [​IMG]

    upload_2018-12-10_17-6-17.png


    Venom là một phim siêu anh hùng của Mỹ dựa trên nhân vật cùng tên của Marvel Comics, do Columbia Pictures sản xuất và Sony Pictures Releasing phát hành. Nó được dự định là bộ phim đầu tiên trong Thế giới Marvel của Sony, được hỗ trợ nhưng tách biệt khỏi Vũ trụ Điện ảnh Marvel (MCU).[a] Đạo diễn phim này là Ruben Fleischer với kịch bản của Scott Rosenberg, Jeff Pinkner, Kelly Marcel và Will Beall, với diễn viên Tom Hardy trong vai Eddie Brock / Venom, cùng với Michelle Williams, và Riz Ahmed.

    Quá trình phát triển của phim này, một spin-off từ thương hiệu phim Spider-Man, bắt đầu với nhà sản xuất phim Avi Arad năm 2007. Sau nhiều lần lặp lại, công việc tạo một phiên bản mới bắt đầu vào tháng 3 năm 2017 để bắt đầu một vũ trụ được chia sẻ mới với các nhân vật Marvel mà Sony sở hữu quyền làm phim, mặc dù Sony cũng dự định chia sẻ thế giới Người Nhện: Trở về nhà, được đặt trong thế giới MCU sau thỏa thuận giữa Sony và Marvel Studios. Rosenberg và Pinkner đã được giao việc viết kịch bản, với Fleischer và Hardy thêm vào tháng 5 năm 2017. Quá trình quay phim chính bắt đầu vào tháng 10 năm 2017, diễn ra tại Atlanta, New York City, và San Francisco.


    Mã:

    Complete name                            : /home/user/Downloads/Venom.2018.UHD.BluRay.2160p.TrueHD.Atmos.7.1.HEVC.REMUX-FraMeSToR/Venom.2018.UHD.BluRay.2160p.TrueHD.Atmos.7.1.HEVC.REMUX-FraMeSToR.mkv
    
    	

    Format : Matroska Format version : Version 4 / Version 2 File size : 45.0 GiB Duration : 1h 52mn Overall bit rate mode : Variable Overall bit rate : 57.5 Mbps Movie name : Venom 4K Encoded date : UTC 2018-12-09 01:28:35 Writing application : mkvmerge v29.0.0 ('Like It Or Not') 64-bit Writing library : libebml v1.3.6 + libmatroska v1.4.9 Video ID : 1 Format : HEVC Format/Info : High Efficiency Video Coding Format profile : Main [email protected]@High Codec ID : V_MPEGH/ISO/HEVC Duration : 1h 52mn Bit rate : 53.5 Mbps Width : 3 840 pixels Height : 2 160 pixels Display aspect ratio : 16:9 Frame rate mode : Constant Frame rate : 23.976 (24000/1001) fps Color space : YUV Chroma subsampling : 4:2:0 Bit depth : 10 bits Bits/(Pixel*Frame) : 0.269 Stream size : 41.9 GiB (93%) Default : Yes Forced : No Color range : Limited Color primaries : BT.2020 Matrix coefficients : BT.2020 non-constant Audio #1 ID : 2 Format : Atmos / TrueHD Codec ID : A_TRUEHD Duration : 1h 52mn Bit rate mode : Variable Bit rate : 3 212 Kbps Maximum bit rate : 5 394 Kbps Channel(s) : Object Based / 8 channels Channel positions : Object Based / Front: L C R, Side: L R, Back: L R, LFE Sampling rate : / 48.0 KHz Frame rate : 1 200.000 fps (40 spf) Compression mode : Lossless Stream size : 2.52 GiB (6%) Title : TrueHD Atmos 7.1 Language : English Default : Yes Forced : No Audio #2 ID : 3 Format : AC-3 Format/Info : Audio Coding 3 Mode extension : CM (complete main) Format settings, Endianness : Big Codec ID : A_AC3 Duration : 1h 52mn Bit rate mode : Constant Bit rate : 640 Kbps Channel(s) : 6 channels Channel positions : Front: L C R, Side: L R, LFE Sampling rate : 48.0 KHz Frame rate : 31.250 fps (1536 spf) Compression mode : Lossy Stream size : 513 MiB (1%) Title : AC3 5.1 Language : English Default : No Forced : No Text #1 ID : 4 Format : PGS Codec ID : S_HDMV/PGS Codec ID/Info : Picture based subtitle format used on BDs/HD-DVDs Duration : 1h 49mn Bit rate : 32.6 Kbps Count of elements : 2702 Stream size : 25.5 MiB (0%) Title : English Language : English Default : No Forced : No Text #2 ID : 5 Format : PGS Codec ID : S_HDMV/PGS Codec ID/Info : Picture based subtitle format used on BDs/HD-DVDs Duration : 1h 49mn Bit rate : 44.8 Kbps Count of elements : 3661 Stream size : 35.0 MiB (0%) Title : English (SDH) Language : English Default : No Forced : No Text #3 ID : 6 Format : PGS Codec ID : S_HDMV/PGS Codec ID/Info : Picture based subtitle format used on BDs/HD-DVDs Duration : 1h 50mn Bit rate : 26.1 Kbps Count of elements : 2394 Stream size : 20.6 MiB (0%) Title : French Language : French Default : No Forced : No Text #4 ID : 7 Format : PGS Codec ID : S_HDMV/PGS Codec ID/Info : Picture based subtitle format used on BDs/HD-DVDs Duration : 1h 50mn Bit rate : 27.6 Kbps Count of elements : 2370 Stream size : 21.8 MiB (0%) Title : Spanish (Latin American) Language : Spanish Default : No Forced : No Menu 00:00:00.000 : en:Chapter 01 00:04:43.200 : en:Chapter 02 00:10:58.074 : en:Chapter 03 00:17:34.929 : en:Chapter 04 00:24:05.486 : en:Chapter 05 00:32:18.812 : en:Chapter 06 00:40:07.447 : en:Chapter 07 00:46:51.976 : en:Chapter 08 00:53:26.203 : en:Chapter 09 01:00:57.070 : en:Chapter 10 01:04:01.796 : en:Chapter 11 01:08:36.446 : en:Chapter 12 01:11:12.852 : en:Chapter 13 01:14:15.743 : en:Chapter 14 01:21:18.749 : en:Chapter 15 01:27:15.021 : en:Chapter 16
     
  2. adm820

    adm820 Moderator Thành viên BQT

    Tham gia ngày:
    1/12/10
    Bài viết:
    17,300
    Đã được cảm ơn:
    324,921
    Giới tính:
    Nam
    Link tải :

    Nhấn nút Cảm ơn (dưới chân bài) để thấy link!
     

Chia sẻ trang này