[MULTI] [4K ISO] The Hunger Games Collection 2012-2015 UHD Blu-ray 2160p HEVC Atmos TrueHD 7.1

Thảo luận trong 'Bluray Nguyên Gốc 4K' bắt đầu bởi adm820, 30/9/20.

  1. adm820

    adm820 Moderator Thành viên BQT

    Tham gia ngày:
    1/12/10
    Bài viết:
    17,257
    Đã được cảm ơn:
    324,332
    Giới tính:
    Nam
    [​IMG]


    [​IMG]

    [​IMG]

    [​IMG]

    PHP:

    ***********************************************************************
    DISC INFO:

    Disc Title:     The Hunger Games Ultra HD Blu-ray™
    Disc Label
    :     HUNGER_GAMES
    Disc Size
    :      99,149,858,795 bytes
    Protection
    :     AACS2
    Extras
    :         Ultra HDBD-Java
    BDInfo
    :         0.7.5.5

    PLAYLIST REPORT
    :

    Name:                   00000.MPLS
    Length
    :                 2:22:30.667 (h:m:s.ms)
    Size:                   62,873,214,720 bytes
    Total Bitrate
    :          58.82 Mbps

    VIDEO
    :

    Codec                   Bitrate             Description     
    -----                   -------             -----------     
    MPEG-H HEVC Video       48748 kbps          2160p 23.976 fps 16:Main 10 Level 5.1 High 10 bits HDR10 BT.2020

    AUDIO
    :

    Codec                           Language        Bitrate         Description     
    -----                           --------        -------         -----------     
    Dolby TrueHD/Atmos Audio        English         4773 kbps       7.1 48 kHz /  4133 kbps 24-bit (AC3 Embedded5.1-EX 48 kHz /   640 kbps DN -31dB)
    Dolby Digital Audio             Spanish         640 kbps        5.1 48 kHz /   640 kbps DN -31dB
    Dolby Digital Audio             French          640 kbps        5.1 
    48 kHz /   640 kbps DN -31dB
    Dolby Digital Audio             English         224 kbps        2.0 
    48 kHz /   224 kbps DN -31dB Dolby Surround

    SUBTITLES
    :

    Codec                           Language        Bitrate         Description     
    -----                           --------        -------         -----------     
    Presentation Graphics           English         20.606 kbps                     
    Presentation Graphics           English         23.390 kbps                     
    Presentation Graphics           Spanish         18.434 kbps                     
    Presentation Graphics           French          0.309 kbps                     

    FILES
    :

    Name            Time In         Length          Size            Total Bitrate   
    ----            -------         ------          ----            -------------   
    00006.M2TS      0:00:00.000     2:22:30.667     62,873,214,720  58,824         


    ***********************************************************************
    DISC INFO:

    Disc Title:     The Hunger GamesCatching Fire Ultra HD Blu-ray™
    Disc Label
    :     CATCHING_FIRE
    Disc Size
    :      97,575,171,068 bytes
    Protection
    :     AACS2
    Extras
    :         Ultra HDBD-Java
    BDInfo
    :         0.7.5.5

    PLAYLIST REPORT
    :

    Name:                   00000.MPLS
    Length
    :                 2:26:16.392 (h:m:s.ms)
    Size:                   81,249,941,760 bytes
    Total Bitrate
    :          74.06 Mbps

    VIDEO
    :

    Codec                   Bitrate             Description     
    -----                   -------             -----------     
    MPEG-H HEVC Video       62497 kbps          2160p 23.976 fps 16:Main 10 Level 5.1 High 10 bits HDR10 BT.2020

    AUDIO
    :

    Codec                           Language        Bitrate         Description     
    -----                           --------        -------         -----------     
    Dolby TrueHD/Atmos Audio        English         5618 kbps       7.1 48 kHz /  4978 kbps 24-bit (AC3 Embedded5.1-EX 48 kHz /   640 kbps DN -31dB)
    Dolby Digital Audio             Spanish         640 kbps        5.1 48 kHz /   640 kbps DN -31dB
    Dolby Digital Audio             French          640 kbps        5.1 
    48 kHz /   640 kbps DN -31dB
    Dolby Digital Audio             English         224 kbps        2.0 
    48 kHz /   224 kbps DN -31dB Dolby Surround

    SUBTITLES
    :

    Codec                           Language        Bitrate         Description     
    -----                           --------        -------         -----------     
    Presentation Graphics           English         26.911 kbps                     
    Presentation Graphics           English         32.501 kbps                     
    Presentation Graphics           Spanish         26.460 kbps                     
    Presentation Graphics           French          0.049 kbps                     

    FILES
    :

    Name            Time In         Length          Size            Total Bitrate   
    ----            -------         ------          ----            -------------   
    00015.M2TS      0:00:00.000     2:26:16.392     81,249,941,760  74,062         


    ***********************************************************************

    DISC INFO:

    Disc Title:     The Hunger GamesMockingjay Part 1 Ultra HD Blu-ray™
    Disc Label
    :     MOCKINGJAY_PT1
    Disc Size
    :      98,180,513,454 bytes
    Protection
    :     AACS2
    Extras
    :         Ultra HDBD-Java
    BDInfo
    :         0.7.5.5

    PLAYLIST REPORT
    :

    Name:                   00000.MPLS
    Length
    :                 2:02:50.112 (h:m:s.ms)
    Size:                   78,203,433,216 bytes
    Total Bitrate
    :          84.89 Mbps

    VIDEO
    :

    Codec                   Bitrate             Description     
    -----                   -------             -----------     
    MPEG-H HEVC Video       72979 kbps          2160p 23.976 fps 16:Main 10 Level 5.1 High 10 bits HDR10 BT.2020

    AUDIO
    :

    Codec                           Language        Bitrate         Description     
    -----                           --------        -------         -----------     
    Dolby TrueHD/Atmos Audio        English         5469 kbps       7.1 48 kHz /  4829 kbps 24-bit (AC3 Embedded5.1-EX 48 kHz /   640 kbps DN -31dB)
    Dolby Digital Audio             Spanish         640 kbps        5.1 48 kHz /   640 kbps DN -31dB
    Dolby Digital Audio             French          640 kbps        5.1 
    48 kHz /   640 kbps DN -31dB
    Dolby Digital Audio             English         224 kbps        2.0 
    48 kHz /   224 kbps DN -31dB Dolby Surround

    SUBTITLES
    :

    Codec                           Language        Bitrate         Description     
    -----                           --------        -------         -----------     
    Presentation Graphics           English         30.585 kbps                     
    Presentation Graphics           English         34.435 kbps                     
    Presentation Graphics           Spanish         30.303 kbps                     

    FILES
    :

    Name            Time In         Length          Size            Total Bitrate   
    ----            -------         ------          ----            -------------   
    00005.M2TS      0:00:00.000     2:02:50.112     78,203,433,216  84,886       
       

    ***********************************************************************


    DISC INFO:

    Disc Title:     The Hunger GamesMockingjay Part 2 – Ultra HD Blu-ray™
    Disc Label
    :     HUNGER_GAMES_MOCKINGJAY_2
    Disc Size
    :      92,176,779,331 bytes
    Protection
    :     AACS2
    Extras
    :         Ultra HDBD-Java
    BDInfo
    :         0.7.5.5

    PLAYLIST REPORT
    :

    Name:                   00000.MPLS
    Length
    :                 2:16:55.957 (h:m:s.ms)
    Size:                   68,375,255,040 bytes
    Total Bitrate
    :          66.58 Mbps

    VIDEO
    :

    Codec                   Bitrate             Description     
    -----                   -------             -----------     
    MPEG-H HEVC Video       56047 kbps          2160p 23.976 fps 16:Main 10 Level 5.1 High 10 bits HDR10 BT.2020

    AUDIO
    :

    Codec                           Language        Bitrate         Description     
    -----                           --------        -------         -----------     
    Dolby TrueHD/Atmos Audio        English         4897 kbps       7.1 48 kHz /  4257 kbps 24-bit (AC3 Embedded5.1-EX 48 kHz /   640 kbps DN -31dB)
    Dolby Digital Audio             Spanish         640 kbps        5.1 48 kHz /   640 kbps DN -31dB
    Dolby Digital Audio             French          640 kbps        5.1 
    48 kHz /   640 kbps DN -31dB
    Dolby Digital Audio             English         224 kbps        2.0 
    48 kHz /   224 kbps DN -31dB Dolby Surround

    SUBTITLES
    :

    Codec                           Language        Bitrate         Description     
    -----                           --------        -------         -----------     
    Presentation Graphics           English         26.282 kbps                     
    Presentation Graphics           English         28.770 kbps                     
    Presentation Graphics           Spanish         26.503 kbps                     

    FILES
    :

    Name            Time In         Length          Size            Total Bitrate   
    ----            -------         ------          ----            -------------   
    00000.M2TS      0:00:00.000     2:16:55.957     68,375,255,040  66,578         




    Link tải

    Đây là đĩa BD100 nguyên bản

    (không phải hàng DIY ,qua chỉnh sửa)

    Các đĩa này kéo từ Usenet

    Nhấn nút Cảm ơn (dưới chân bài) để thấy link!


    Đĩa 1080p nguyên gốc ISO

    [ISO] The Hunger Games Collection 2012-2015 HKG Blu-Ray 1080p AVC TrueHD 7.1


     
    saosao, aris44, Vinguy and 124 others like this.
  2. chipsteps

    chipsteps Well-Known Member

    Tham gia ngày:
    31/8/20
    Bài viết:
    187
    Đã được cảm ơn:
    242
    Giới tính:
    Nam
    sẽ kéo hết bộ này luôn bác ạ! :)
     
  3. thanhminhnguyentit

    thanhminhnguyentit Well-Known Member

    Tham gia ngày:
    23/8/16
    Bài viết:
    753
    Đã được cảm ơn:
    251
    Giới tính:
    Nam
    Nơi ở:
    Thành phố Băc Ninh
    Bộ này đã có súp chưa bác và nôi dung khái quát là gì .Bác hô lên một tiếng để anh em kepos
     
  4. adm820

    adm820 Moderator Thành viên BQT

    Tham gia ngày:
    1/12/10
    Bài viết:
    17,257
    Đã được cảm ơn:
    324,332
    Giới tính:
    Nam
    reup
     
    hienthang, nttung89 and chipsteps like this.
  5. hienthang

    hienthang Member

    Tham gia ngày:
    22/1/21
    Bài viết:
    83
    Đã được cảm ơn:
    15
    Giới tính:
    Nam
    chỉ còn 2 phàn nhờ chủ topic reup lại ,cảm ơn nhiều ạ
     
  6. adm820

    adm820 Moderator Thành viên BQT

    Tham gia ngày:
    1/12/10
    Bài viết:
    17,257
    Đã được cảm ơn:
    324,332
    Giới tính:
    Nam

Chia sẻ trang này