[Fshare] [4K HDR | SDR| Phiêu Lưu] The Ice Age Adventures of Buck Wild 2022 2160p DSNP WEB-DL -Kỷ Băng Hà

Thảo luận trong 'WEB-DL, HDTV 4K' bắt đầu bởi xemaydinh, 28/1/22.

  1. xemaydinh

    xemaydinh Tem

    Tham gia ngày:
    3/7/10
    Bài viết:
    35,967
    Đã được cảm ơn:
    189,562
    The.Ice.Age.Adventures.of.Buck.Wild.2022.2160p.WEB-DL.DDP5.1.Atmos.HDR.HEVC-TEPES

    Kỷ Băng Hà

    [​IMG]



    Anh em nhà Possum Crash và Eddie bắt đầu tìm một nơi ở cho riêng mình, nhưng lại thấy mình bị mắc kẹt trong Thế giới đã mất. Họ được chồn Buck Wild giải cứu, và cùng nhau bắt tay vào sứ mệnh giải cứu Thế giới đã mất khỏi sự thống trị của loài khủng long.


    General
    Filename.......: The.Ice.Age.Adventures.of.Buck.Wild.2022.2160p.WEB-DL.DDP5.1.Atmos.HDR.HEVC-TEPES.mkv
    FileSize.......: 12.8 GiB
    Duration.......: 1 h 21 min


    Video
    Codec..........: HEVC x265 - 10bit Main [email protected]@Main
    Resolution.....: 3840x2160
    Aspect ratio...: 16:9
    Bit rate.......: 21.8 Mb/s
    Frame rate.....: 23.976 fps
    Color primaries: BT.2020 - HDR


    Audio
    Language.......: English
    Channels.......: 6 CH
    Format.........: Dolby Digital Plus with Dolby Atmos
    Bit rate.......: 768 kb/s


    Subtitle.......: English
    Subtitle.......: English (SDH)
    Subtitle.......: Danish
    Subtitle.......: German
    Subtitle.......: Spanish (Latin American)
    Subtitle.......: Spanish
    Subtitle.......: Finnish
    Subtitle.......: French
    Subtitle.......: Italian
    Subtitle.......: Japanese
    Subtitle.......: Korean
    Subtitle.......: Dutch
    Subtitle.......: Norwegian
    Subtitle.......: Portuguese (Brazilian)
    Subtitle.......: Portuguese
    Subtitle.......: Swedish
    Subtitle.......: Chinese (Cantonese)
    Subtitle.......: Chinese (Simplified)
    Subtitle.......: Chinese (Traditional)


    mhd

    720p

    1080p

    Thuyết minh

    Remux

    ISO
     
    Chỉnh sửa cuối: 31/1/22
  2. xemaydinh

    xemaydinh Tem

    Tham gia ngày:
    3/7/10
    Bài viết:
    35,967
    Đã được cảm ơn:
    189,562
    The.Ice.Age.Adventures.of.Buck.Wild.2022.2160p.DSNP.WEB-DL.x265.10bit.SDR.DDP5.1.Atmos-TEPES

    Kỷ Băng Hà

    [​IMG]



    Anh em nhà Possum Crash và Eddie bắt đầu tìm một nơi ở cho riêng mình, nhưng lại thấy mình bị mắc kẹt trong Thế giới đã mất. Họ được chồn Buck Wild giải cứu, và cùng nhau bắt tay vào sứ mệnh giải cứu Thế giới đã mất khỏi sự thống trị của loài khủng long.

    Video
    ID : 1
    Format : HEVC
    Format/Info : High Efficiency Video Coding
    Format profile : [email protected]@High
    Codec ID : V_MPEGH/ISO/HEVC
    Duration : 1 h 21 min
    Bit rate : 19.6 Mb/s
    Width : 3 840 pixels
    Height : 2 160 pixels
    Display aspect ratio : 16:9
    Frame rate mode : Constant
    Frame rate : 23.976 (24000/1001) FPS
    Color space : YUV
    Chroma subsampling : 4:2:0
    Bit depth : 8 bits
    Bits/(Pixel*Frame) : 0.099
    Stream size : 11.1 GiB (96%)
    Writing library : x265 3.5:[Linux][GCC 9.3.0][64 bit] 8bit+10bit+12bit
    Encoding settings : cpuid=1111039 / frame-threads=1 / numa-pools=16 / wpp / no-pmode / no-pme / no-psnr / no-ssim / log-level=2 / input-csp=1 / input-res=3840x2160 / interlace=0 / total-frames=0 / level-idc=50 / high-tier=1 / uhd-bd=0 / ref=2 / no-allow-non-conformance / repeat-headers / annexb / no-aud / no-hrd / info / hash=0 / no-temporal-layers / no-open-gop / min-keyint=48 / keyint=48 / gop-lookahead=0 / bframes=4 / b-adapt=1 / b-pyramid / bframe-bias=0 / rc-lookahead=48 / lookahead-slices=8 / scenecut=0 / hist-scenecut=0 / radl=0 / no-splice / no-intra-refresh / ctu=32 / min-cu-size=8 / no-rect / no-amp / max-tu-size=16 / tu-inter-depth=2 / tu-intra-depth=2 / limit-tu=0 / rdoq-level=1 / dynamic-rd=0.00 / no-ssim-rd / signhide / no-tskip / nr-intra=0 / nr-inter=0 / no-constrained-intra / no-strong-intra-smoothing / max-merge=3 / limit-refs=1 / no-limit-modes / me=1 / subme=2 / merange=44 / temporal-mvp / no-frame-dup / no-hme / weightp / no-weightb / no-analyze-src-pics / deblock=0:0 / no-sao / no-sao-non-deblock / rd=4 / selective-sao=0 / early-skip / rskip / no-fast-intra / no-tskip-fast / no-cu-lossless / b-intra / no-splitrd-skip / rdpenalty=1 / psy-rd=1.60 / psy-rdoq=5.00 / no-rd-refine / no-lossless / cbqpoffs=0 / crqpoffs=0 / rc=abr / bitrate=20000 / qcomp=0.75 / qpstep=4 / stats-write=0 / stats-read=0 / vbv-maxrate=24000 / vbv-bufsize=40000 / vbv-init=0.9 / ipratio=1.40 / pbratio=1.30 / aq-mode=3 / aq-strength=1.00 / no-cutree / zone-count=0 / no-strict-cbr / qg-size=32 / no-rc-grain / qpmax=69 / qpmin=0 / no-const-vbv / sar=1 / overscan=0 / videoformat=5 / range=0 / colorprim=1 / transfer=1 / colormatrix=1 / chromaloc=0 / display-window=0 / cll=0,0 / min-luma=0 / max-luma=255 / log2-max-poc-lsb=8 / vui-timing-info / vui-hrd-info / slices=1 / no-opt-qp-pps / no-opt-ref-list-length-pps / no-multi-pass-opt-rps / scenecut-bias=0.00 / hist-threshold=0.01 / no-opt-cu-delta-qp / no-aq-motion / no-hdr10 / no-hdr10-opt / no-dhdr10-opt / no-idr-recovery-sei / analysis-reuse-level=0 / analysis-save-reuse-level=0 / analysis-load-reuse-level=0 / scale-factor=0 / refine-intra=0 / refine-inter=0 / refine-mv=1 / refine-ctu-distortion=0 / no-limit-sao / ctu-info=0 / no-lowpass-dct / refine-analysis-type=0 / copy-pic=1 / max-ausize-factor=1.0 / no-dynamic-refine / no-single-sei / no-hevc-aq / no-svt / no-field / qp-adaptation-range=1.00 / no-scenecut-aware-qpconformance-window-offsets / right=0 / bottom=0
    Default : Yes
    Forced : No
    Color range : Limited
    Color primaries : BT.709
    Transfer characteristics : BT.709
    Matrix coefficients : BT.709

    Audio
    ID : 2
    Format : E-AC-3 JOC
    Format/Info : Enhanced AC-3 with Joint Object Coding
    Commercial name : Dolby Digital Plus with Dolby Atmos
    Codec ID : A_EAC3
    Duration : 1 h 21 min
    Bit rate mode : Constant
    Bit rate : 768 kb/s
    Channel(s) : 6 channels
    Channel layout : L R C LFE Ls Rs
    Sampling rate : 48.0 kHz
    Frame rate : 31.250 FPS (1536 SPF)
    Compression mode : Lossy
    Delay relative to video : 1 s 877 ms
    Stream size : 445 MiB (4%)
    Language : English
    Service kind : Complete Main
    Default : Yes
    Forced : No
    Complexity index : 16
    Number of dynamic objects : 15
    Bed channel count : 1 channel
    Bed channel configuration : LFE




    mhd

    720p

    1080p

    Thuyết minh

    Remux

    ISO
     
    shinitrinh, halley_nth, ta137 and 3 others like this.
  3. xemaydinh

    xemaydinh Tem

    Tham gia ngày:
    3/7/10
    Bài viết:
    35,967
    Đã được cảm ơn:
    189,562
    The.Ice.Age.Adventures.of.Buck.Wild.2022.2160p.DSNP.WEB-DL.DDP5.1.Atmos.DV.MKV.x265-TEPES

    Kỷ Băng Hà

    [​IMG]



    Anh em nhà Possum Crash và Eddie bắt đầu tìm một nơi ở cho riêng mình, nhưng lại thấy mình bị mắc kẹt trong Thế giới đã mất. Họ được chồn Buck Wild giải cứu, và cùng nhau bắt tay vào sứ mệnh giải cứu Thế giới đã mất khỏi sự thống trị của loài khủng long.

    Video
    ID : 1
    Format : HEVC
    Format/Info : High Efficiency Video Coding
    Format profile : Main [email protected]@Main
    HDR format : Dolby Vision, Version 1.0, dvhe.05.06, BL+RPU
    Codec ID : V_MPEGH/ISO/HEVC
    Duration : 1 h 21 min
    Bit rate : 21.8 Mb/s
    Width : 3 840 pixels
    Height : 2 160 pixels
    Display aspect ratio : 16:9
    Frame rate mode : Constant
    Frame rate : 23.976 (24000/1001) FPS
    Color space : YUV
    Chroma subsampling : 4:2:0 (Type 0)
    Bit depth : 10 bits
    Bits/(Pixel*Frame) : 0.110
    Stream size : 12.4 GiB (97%)
    Default : Yes
    Forced : No
    Color range : Full

    Audio
    ID : 2
    Format : E-AC-3 JOC
    Format/Info : Enhanced AC-3 with Joint Object Coding
    Commercial name : Dolby Digital Plus with Dolby Atmos
    Codec ID : A_EAC3
    Duration : 1 h 21 min
    Bit rate mode : Constant
    Bit rate : 768 kb/s
    Channel(s) : 6 channels
    Channel layout : L R C LFE Ls Rs
    Sampling rate : 48.0 kHz
    Frame rate : 31.250 FPS (1536 SPF)
    Compression mode : Lossy
    Delay relative to video : 1 s 877 ms
    Stream size : 445 MiB (3%)
    Language : English
    Service kind : Complete Main
    Default : Yes
    Forced : No
    Complexity index : 16
    Number of dynamic objects : 15
    Bed channel count : 1 channel
    Bed channel configuration : LFE

    Text #1
    ID : 3
    Format : UTF-8
    Codec ID : S_TEXT/UTF8
    Codec ID/Info : UTF-8 Plain Text
    Duration : 1 h 17 min
    Bit rate : 63 b/s
    Count of elements : 1065
    Stream size : 36.0 KiB (0%)
    Language : English
    Default : No
    Forced : No



    mhd

    720p

    1080p

    Thuyết minh

    Remux

    ISO
     
    Behe and tomhang like this.

Chia sẻ trang này