[Fshare] [4K |Hành Động] Venom Let There Be Carnage 2021 2160p UHD BluRay.x265 10bit HDR DTS-HD MA TrueHD.7.1

Thảo luận trong '4K' bắt đầu bởi xemaydinh, 13/12/21.

  1. xemaydinh

    xemaydinh Tem

    Tham gia ngày:
    3/7/10
    Bài viết:
    36,012
    Đã được cảm ơn:
    190,594
    Venom.Let.There.Be.Carnage.2021.2160p.UHD.BluRay.HDR.x265.Atmos.TrueHD7.1-HDChina

    Venom: Đối Mặt Tử Thù

    [​IMG]



    18 tháng sau các sự kiện trong Venom (2018), phóng viên Eddie Brock cố gắng làm quen với việc sống như 1 vật chủ của sinh vật ngoài hành tinh Venom, kẻ ban cho anh siêu năng lực nhưng cũng khiến anh phải cảnh giác. Brock cố gắng xây dựng lại sự nghiệp của mình bằng cách phỏng vấn tên sát nhân Cletus Kasady, kẻ trở thành vật chủ của sinh vật Carnage và bỏ trốn khỏi nhà tù sau khi may mắn thoát khỏi hành quyết.




    Venom.Let.There.Be.Carnage.2021.2160p.UHD.BluRay.HDR.x265.Atmos.TrueHD7.1-HDChina

    ----------MEDiA iNFO------------

    SOURCE TYPE.....: 2160p.UHD.Blu-ray.HEVC.Atmos.TrueHD7.1-MTeam
    ViDEO BiTRATE...: x265 Main 10 L5.1 High @ 24365 kbps
    FRAME RATE......: 23.976 fps
    AUDiO1..........: English TrueHD 7.1 @ 4291 kbps
    AUDiO2..........: English DD 5.1 @ 640 kbps
    RESOLUTiON......: 3840 x 2076
    SUBTiTLE........: English | Chinese
    ENCODER ........: tianhe @ HDChina

    ----------x265 iNFO------------

    x265 [info]: frame I: 1211, Avg QP:13.63 kb/s: 49939.36
    x265 [info]: frame P: 28003, Avg QP:14.82 kb/s: 35580.60
    x265 [info]: frame B: 110754, Avg QP:16.70 kb/s: 21249.96
    x265 [info]: Weighted P-Frames: Y:9.7% UV:7.7%
    x265 [info]: Weighted B-Frames: Y:7.9% UV:6.0%
    x265 [info]: consecutive B-frames: 13.2% 5.8% 6.3% 22.3% 8.2% 25.1% 5.8% 6.0% 7.4%






    mhd https://www.hdvietnam.com/threads/h...y-dd5-1x264-xmd-venom-doi-mat-tu-thu.1739771/

    720p https://www.hdvietnam.com/threads/h...-hd-ma-5-1-x264-venom-doi-mat-tu-thu.1739783/

    1080p https://www.hdvietnam.com/threads/h...-hd-ma-5-1-x264-venom-doi-mat-tu-thu.1739504/

    4K https://www.hdvietnam.com/threads/4...-x265-10bit-hdr-dts-hd-ma-truehd-7-1.1743281/

    4K thuyết minh https://hdvietnam.com/threads/hanh-...ray-dts-hd-ma-5-1-x264.1739825/#post-10726532

    Thuyết minh https://www.hdvietnam.com/threads/h...p-1080p-4k-bluray-dts-hd-ma-5-1-x264.1739825/

    Remux https://www.hdvietnam.com/threads/h...x-avc-dts-hd-ma-venom-doi-mat-tu-thu.1740963/

    Remux _thuyết minh https://hdvietnam.com/threads/hanh-...ray-dts-hd-ma-5-1-x264.1739825/#post-10721564

    Remux 4K https://www.hdvietnam.com/threads/r...-2160p-remux-hevc-truhd-7-1-atmos-dv.1742621/

    Remux 4K_thuyết minh + sub việt mux sẵn https://hdvietnam.com/threads/hanh-...ray-dts-hd-ma-5-1-x264.1739825/#post-10737769

    ISO https://www.hdvietnam.com/threads/i...-avc-dts-hd-ma5-venom-doi-mat-tu-thu.1742222/

    ISO 4K https://www.hdvietnam.com/threads/i...lu-ray-hevc-atmos-tru-doi-mat-tu-thu.1743129/
     
    Chỉnh sửa cuối: 29/12/21
  2. xemaydinh

    xemaydinh Tem

    Tham gia ngày:
    3/7/10
    Bài viết:
    36,012
    Đã được cảm ơn:
    190,594
    mới cập nhật thuyết minh,remux 4K, HiDt

    Venom Let There Be Carnage 2021 2160p UHD BluRay.x265 10bit HDR DTS-HD MA TrueHD.7.1 Atmos-SWTYBLZ

    Venom: Đối Mặt Tử Thù

    [​IMG]



    18 tháng sau các sự kiện trong Venom (2018), phóng viên Eddie Brock cố gắng làm quen với việc sống như 1 vật chủ của sinh vật ngoài hành tinh Venom, kẻ ban cho anh siêu năng lực nhưng cũng khiến anh phải cảnh giác. Brock cố gắng xây dựng lại sự nghiệp của mình bằng cách phỏng vấn tên sát nhân Cletus Kasady, kẻ trở thành vật chủ của sinh vật Carnage và bỏ trốn khỏi nhà tù sau khi may mắn thoát khỏi hành quyết.


    General
    Unique ID : 267478035932472175244993815175027410879 (0xC93A6558D6BF14B4C016C861D296C7BF)
    Complete name : C:\(4K) Venom.Let.There.Be.Carnage.2021.2160p.UHD.BluRay.x265.10bit.HDR.DTS-HD.MA.TrueHD.7.1.Atmos-SWTYBLZ.mkv
    Format : Matroska
    Format version : Version 4
    File size : 13.8 GiB
    Duration : 1 h 37 min
    Overall bit rate mode : Variable
    Overall bit rate : 20.3 Mb/s
    Movie name : Venom.Let.There.Be.Carnage.2021.2160p.UHD.BluRay.x265.10bit.HDR.DTS-HD.MA.TrueHD.7.1.Atmos-SWTYBLZ
    Encoded date : UTC 2021-12-12 21:12:55
    Writing application : mkvmerge v63.0.0 ('Everything') 64-bit
    Writing library : libebml v1.4.2 + libmatroska v1.6.4

    Video
    ID : 1
    Format : HEVC
    Format/Info : High Efficiency Video Coding
    Format profile : Main [email protected]@High
    HDR format : SMPTE ST 2086, HDR10 compatible
    Codec ID : V_MPEGH/ISO/HEVC
    Duration : 1 h 37 min
    Bit rate : 10.9 Mb/s
    Width : 3 840 pixels
    Height : 2 076 pixels
    Display aspect ratio : 1.85:1
    Frame rate mode : Constant
    Frame rate : 23.976 (24000/1001) FPS
    Color space : YUV
    Chroma subsampling : 4:2:0 (Type 2)
    Bit depth : 10 bits
    Bits/(Pixel*Frame) : 0.057
    Stream size : 7.37 GiB (54%)
    Writing library : x265 3.0_Au+10-74a8672ea4f7:[Windows][GCC 8.2.1][64 bit] 10bit
    Encoding settings : cpuid=1111039 / frame-threads=6 / numa-pools=40 / wpp / no-pmode / no-pme / no-psnr / no-ssim / log-level=2 / input-csp=1 / input-res=3840x2076 / interlace=0 / total-frames=0 / level-idc=51 / high-tier=1 / uhd-bd=0 / ref=3 / no-allow-non-conformance / repeat-headers / annexb / aud / hrd / info / hash=0 / no-temporal-layers / no-open-gop / min-keyint=1 / keyint=24 / gop-lookahead=0 / bframes=4 / b-adapt=2 / b-pyramid / bframe-bias=0 / rc-lookahead=25 / lookahead-slices=4 / scenecut=40 / radl=0 / no-splice / no-intra-refresh / ctu=64 / min-cu-size=8 / no-rect / no-amp / max-tu-size=32 / tu-inter-depth=1 / tu-intra-depth=1 / limit-tu=0 / rdoq-level=0 / dynamic-rd=0.00 / no-ssim-rd / signhide / no-tskip / nr-intra=0 / nr-inter=0 / no-constrained-intra / strong-intra-smoothing / max-merge=2 / limit-refs=3 / no-limit-modes / me=1 / subme=2 / merange=57 / temporal-mvp / weightp / no-weightb / no-analyze-src-pics / deblock=0:0 / no-sao / no-sao-non-deblock / rd=3 / no-early-skip / rskip / no-fast-intra / no-tskip-fast / no-cu-lossless / no-b-intra / no-splitrd-skip / rdpenalty=0 / psy-rd=2.00 / psy-rdoq=0.00 / no-rd-refine / no-lossless / cbqpoffs=0 / crqpoffs=0 / rc=crf / crf=16.0 / qcomp=0.60 / qpstep=4 / stats-write=0 / stats-read=0 / vbv-maxrate=160000 / vbv-bufsize=160000 / vbv-init=0.9 / crf-max=0.0 / crf-min=0.0 / ipratio=1.40 / pbratio=1.30 / aq-mode=1 / aq-strength=1.00 / cutree / zone-count=0 / no-strict-cbr / qg-size=32 / no-rc-grain / qpmax=69 / qpmin=0 / no-const-vbv / sar=1 / overscan=0 / videoformat=5 / range=0 / colorprim=9 / transfer=16 / colormatrix=9 / chromaloc=1 / chromaloc-top=2 / chromaloc-bottom=2 / display-window=0 / master-display=G(8500,39850)B(6550,2300)R(35400,14600)WP(15635,16450)L(10000000,01) / max-cll=7659,522 / min-luma=0 / max-luma=1023 / log2-max-poc-lsb=8 / vui-timing-info / vui-hrd-info / slices=1 / opt-qp-pps / opt-ref-list-length-pps / no-multi-pass-opt-rps / scenecut-bias=0.05 / no-opt-cu-delta-qp / no-aq-motion / hdr / hdr-opt / no-dhdr10-opt / no-idr-recovery-sei / analysis-reuse-level=5 / scale-factor=0 / refine-intra=0 / refine-inter=0 / refine-mv=0 / refine-ctu-distortion=0 / no-limit-sao / ctu-info=0 / no-lowpass-dct / refine-analysis-type=0 / copy-pic=1 / max-ausize-factor=1.0 / no-dynamic-refine / no-single-sei / no-hevc-aq / no-svt / qp-adaptation-range=1.00
    Default : Yes
    Forced : No
    Color range : Limited
    Color primaries : BT.2020
    Transfer characteristics : PQ
    Matrix coefficients : BT.2020 non-constant
    Mastering display color primaries : BT.2020
    Mastering display luminance : min: 0.0001 cd/m2, max: 1000 cd/m2
    Maximum Content Light Level : 7659 cd/m2
    Maximum Frame-Average Light Level : 522 cd/m2

    Audio #1
    ID : 2
    ID in the original source medium : 4352 (0x1100)
    Format : MLP FBA 16-ch
    Format/Info : Meridian Lossless Packing FBA with 16-channel presentation
    Commercial name : Dolby TrueHD with Dolby Atmos
    Codec ID : A_TRUEHD
    Duration : 1 h 37 min
    Bit rate mode : Variable
    Bit rate : 4 291 kb/s
    Maximum bit rate : 7 512 kb/s
    Channel(s) : 8 channels
    Channel layout : L R C LFE Ls Rs Lb Rb
    Sampling rate : 48.0 kHz
    Frame rate : 1 200.000 FPS (40 SPF)
    Bit depth : 24 bits
    Compression mode : Lossless
    Stream size : 2.92 GiB (21%)
    Title : TrueHD 7.1 Atmos
    Language : English
    Default : Yes
    Forced : No
    Original source medium : Blu-ray
    Number of dynamic objects : 11
    Bed channel count : 1 channel
    Bed channel configuration : LFE

    Audio #2
    ID : 3
    Format : DTS XLL
    Format/Info : Digital Theater Systems
    Commercial name : DTS-HD Master Audio
    Codec ID : A_DTS
    Duration : 1 h 37 min
    Bit rate mode : Variable
    Bit rate : 4 212 kb/s
    Channel(s) : 8 channels
    Channel layout : C L R LFE Lb Rb Lss Rss
    Sampling rate : 48.0 kHz
    Frame rate : 93.750 FPS (512 SPF)
    Bit depth : 24 bits
    Compression mode : Lossless
    Stream size : 2.86 GiB (21%)
    Title : DTS-HD MA 7.1
    Language : English
    Default : No
    Forced : No

    Audio #3
    ID : 4
    Format : AC-3
    Format/Info : Audio Coding 3
    Commercial name : Dolby Digital
    Codec ID : A_AC3
    Duration : 1 h 37 min
    Bit rate mode : Constant
    Bit rate : 640 kb/s
    Channel(s) : 6 channels
    Channel layout : L R C LFE Ls Rs
    Sampling rate : 48.0 kHz
    Frame rate : 31.250 FPS (1536 SPF)
    Compression mode : Lossy
    Stream size : 445 MiB (3%)
    Title : DD 5.1
    Language : English
    Service kind : Complete Main
    Default : No
    Forced : No

    Text #1
    ID : 5
    Format : UTF-8
    Codec ID : S_TEXT/UTF8
    Codec ID/Info : UTF-8 Plain Text
    Duration : 1 h 35 min
    Bit rate : 58 b/s
    Count of elements : 1278
    Stream size : 41.2 KiB (0%)
    Language : English
    Default : Yes
    Forced : No

    Text #2
    ID : 6
    Format : UTF-8
    Codec ID : S_TEXT/UTF8
    Codec ID/Info : UTF-8 Plain Text
    Duration : 1 h 36 min
    Bit rate : 69 b/s
    Count of elements : 1568
    Stream size : 48.9 KiB (0%)
    Title : SDH
    Language : English
    Default : No
    Forced : No

    Text #3
    ID : 7
    ID in the original source medium : 4768 (0x12A0)
    Format : PGS
    Muxing mode : zlib
    Codec ID : S_HDMV/PGS
    Codec ID/Info : Picture based subtitle format used on BDs/HD-DVDs
    Duration : 1 h 36 min
    Bit rate : 43.5 kb/s
    Count of elements : 3258
    Stream size : 30.1 MiB (0%)
    Language : English
    Default : No
    Forced : No
    Original source medium : Blu-ray

    Text #4
    ID : 8
    ID in the original source medium : 4769 (0x12A1)
    Format : PGS
    Muxing mode : zlib
    Codec ID : S_HDMV/PGS
    Codec ID/Info : Picture based subtitle format used on BDs/HD-DVDs
    Duration : 1 h 27 min
    Bit rate : 31.9 kb/s
    Count of elements : 2252
    Stream size : 19.9 MiB (0%)
    Language : English
    Default : No
    Forced : No
    Original source medium : Blu-ray

    Text #5
    ID : 9
    ID in the original source medium : 4770 (0x12A2)
    Format : PGS
    Muxing mode : zlib
    Codec ID : S_HDMV/PGS
    Codec ID/Info : Picture based subtitle format used on BDs/HD-DVDs
    Duration : 1 h 36 min
    Bit rate : 23.0 kb/s
    Count of elements : 2254
    Stream size : 15.8 MiB (0%)
    Language : Chinese
    Default : No
    Forced : No
    Original source medium : Blu-ray

    Text #6
    ID : 10
    ID in the original source medium : 4771 (0x12A3)
    Format : PGS
    Muxing mode : zlib
    Codec ID : S_HDMV/PGS
    Codec ID/Info : Picture based subtitle format used on BDs/HD-DVDs
    Duration : 1 h 36 min
    Bit rate : 23.4 kb/s
    Count of elements : 2238
    Stream size : 16.1 MiB (0%)
    Language : Chinese
    Default : No
    Forced : No
    Original source medium : Blu-ray

    Text #7
    ID : 11
    ID in the original source medium : 4772 (0x12A4)
    Format : PGS
    Muxing mode : zlib
    Codec ID : S_HDMV/PGS
    Codec ID/Info : Picture based subtitle format used on BDs/HD-DVDs
    Duration : 1 h 36 min
    Bit rate : 22.5 kb/s
    Count of elements : 2228
    Stream size : 15.5 MiB (0%)
    Language : Chinese
    Default : No
    Forced : No
    Original source medium : Blu-ray

    Text #8
    ID : 12
    ID in the original source medium : 4775 (0x12A7)
    Format : PGS
    Muxing mode : zlib
    Codec ID : S_HDMV/PGS
    Codec ID/Info : Picture based subtitle format used on BDs/HD-DVDs
    Duration : 1 h 36 min
    Bit rate : 26.6 kb/s
    Count of elements : 2112
    Stream size : 18.3 MiB (0%)
    Language : French
    Default : No
    Forced : No
    Original source medium : Blu-ray

    Text #9
    ID : 13
    ID in the original source medium : 4776 (0x12A8)
    Format : PGS
    Muxing mode : zlib
    Codec ID : S_HDMV/PGS
    Codec ID/Info : Picture based subtitle format used on BDs/HD-DVDs
    Duration : 1 h 36 min
    Bit rate : 29.5 kb/s
    Count of elements : 2200
    Stream size : 20.2 MiB (0%)
    Language : Indonesian
    Default : No
    Forced : No
    Original source medium : Blu-ray

    Text #10
    ID : 14
    ID in the original source medium : 4777 (0x12A9)
    Format : PGS
    Muxing mode : zlib
    Codec ID : S_HDMV/PGS
    Codec ID/Info : Picture based subtitle format used on BDs/HD-DVDs
    Duration : 1 h 35 min
    Bit rate : 21.6 kb/s
    Count of elements : 2250
    Stream size : 14.9 MiB (0%)
    Language : Korean
    Default : No
    Forced : No
    Original source medium : Blu-ray

    Text #11
    ID : 15
    ID in the original source medium : 4778 (0x12AA)
    Format : PGS
    Muxing mode : zlib
    Codec ID : S_HDMV/PGS
    Codec ID/Info : Picture based subtitle format used on BDs/HD-DVDs
    Duration : 1 h 36 min
    Bit rate : 30.5 kb/s
    Count of elements : 2208
    Stream size : 21.0 MiB (0%)
    Language : Malay
    Default : No
    Forced : No
    Original source medium : Blu-ray

    Text #12
    ID : 16
    ID in the original source medium : 4779 (0x12AB)
    Format : PGS
    Muxing mode : zlib
    Codec ID : S_HDMV/PGS
    Codec ID/Info : Picture based subtitle format used on BDs/HD-DVDs
    Duration : 1 h 36 min
    Bit rate : 27.5 kb/s
    Count of elements : 2154
    Stream size : 18.9 MiB (0%)
    Language : Portuguese
    Default : No
    Forced : No
    Original source medium : Blu-ray

    Text #13
    ID : 17
    ID in the original source medium : 4780 (0x12AC)
    Format : PGS
    Muxing mode : zlib
    Codec ID : S_HDMV/PGS
    Codec ID/Info : Picture based subtitle format used on BDs/HD-DVDs
    Duration : 1 h 36 min
    Bit rate : 26.4 kb/s
    Count of elements : 2174
    Stream size : 18.1 MiB (0%)
    Language : Spanish
    Default : No
    Forced : No
    Original source medium : Blu-ray

    Text #14
    ID : 18
    ID in the original source medium : 4781 (0x12AD)
    Format : PGS
    Muxing mode : zlib
    Codec ID : S_HDMV/PGS
    Codec ID/Info : Picture based subtitle format used on BDs/HD-DVDs
    Duration : 1 h 36 min
    Bit rate : 27.3 kb/s
    Count of elements : 2250
    Stream size : 18.7 MiB (0%)
    Language : Thai
    Default : No
    Forced : No
    Original source medium : Blu-ray

    Menu
    00:00:00.000 : en:Chapter 01
    00:05:24.741 : en:Chapter 02
    00:09:33.239 : en:Chapter 03
    00:12:20.406 : en:Chapter 04
    00:18:23.435 : en:Chapter 05
    00:23:00.837 : en:Chapter 06
    00:30:17.816 : en:Chapter 07
    00:35:03.392 : en:Chapter 08
    00:39:26.781 : en:Chapter 09
    00:45:34.940 : en:Chapter 10
    00:50:40.037 : en:Chapter 11
    00:55:29.701 : en:Chapter 12
    01:01:00.657 : en:Chapter 13
    01:06:57.638 : en:Chapter 14
    01:14:36.680 : en:Chapter 15
    01:21:58.038 : en:Chapter 16



    mhd https://www.hdvietnam.com/threads/h...y-dd5-1x264-xmd-venom-doi-mat-tu-thu.1739771/

    720p https://www.hdvietnam.com/threads/h...-hd-ma-5-1-x264-venom-doi-mat-tu-thu.1739783/

    1080p https://www.hdvietnam.com/threads/h...-hd-ma-5-1-x264-venom-doi-mat-tu-thu.1739504/

    4K

    Thuyết minh https://www.hdvietnam.com/threads/h...p-1080p-4k-bluray-dts-hd-ma-5-1-x264.1739825/

    Remux https://www.hdvietnam.com/threads/h...x-avc-dts-hd-ma-venom-doi-mat-tu-thu.1740963/

    Remux 4K https://www.hdvietnam.com/threads/r...-2160p-remux-hevc-truhd-7-1-atmos-dv.1742621/

    ISO https://www.hdvietnam.com/threads/i...-avc-dts-hd-ma5-venom-doi-mat-tu-thu.1742222/

    ISO 4K https://www.hdvietnam.com/threads/i...lu-ray-hevc-atmos-tru-doi-mat-tu-thu.1743129/
     

Chia sẻ trang này