[Fshare] [4K | Hành Động] Return of Sister-in-law 2021 ViE 2160p WEB-DL H265 AAC - Chị Dâu Trở Về ( TM)

Thảo luận trong 'Phim có audio Việt' bắt đầu bởi Ultra-Vision®, 24/1/22.

  1. Ultra-Vision®

    Ultra-Vision® Well-Known Member

    Tham gia ngày:
    22/8/21
    Bài viết:
    131
    Đã được cảm ơn:
    1,636
    Giới tính:
    Nam
    Return of Sister-in-law 2021 ViE 2160p
    WEB-DL
    H265 AAC
    Chị Dâu Trở Về - Thuyết Minh
    [​IMG]
    [​IMG]
    Mã:
    Complete name               : Return of Sister-in-law 2021 ViE 2160p WEB-DL H265 AAC.mkv
    Format                      : Matroska
    Format version              : Version 4
    File size                   : 3.07 GiB
    Duration                    : 1 h 30 min
    Overall bit rate            : 4 868 kb/s
    
    
    Encoded date                : UTC 2021-12-28 13:05:59
    Writing application         : mkvmerge v62.0.0 ('Apollo') 64-bit
    Writing library             : libebml v1.4.2 + libmatroska v1.6.4
    Attachments                 : poster5.jpg
    Video
    ID                          : 1
    Format                      : HEVC
    Format/Info                 : High Efficiency Video Coding
    Format profile              : [email protected]@Main
    Codec ID                    : V_MPEGH/ISO/HEVC
    Duration                    : 1 h 30 min
    Bit rate                    : 4 035 kb/s
    Width                       : 3 840 pixels
    Height                      : 1 640 pixels
    Display aspect ratio        : 2.35:1
    Frame rate mode             : Constant
    Frame rate                  : 24.000 FPS
    Color space                 : YUV
    Chroma subsampling          : 4:2:0
    Bit depth                   : 8 bits
    Bits/(Pixel*Frame)          : 0.027
    Stream size                 : 2.54 GiB (83%)
    Default                     : Yes
    Forced                      : No
    Audio #1
    ID                          : 2
    Format                      : AAC LC
    Format/Info                 : Advanced Audio Codec Low Complexity
    Codec ID                    : A_AAC-2
    Duration                    : 1 h 30 min
    Bit rate                    : 192 kb/s
    Channel(s)                  : 2 channels
    Channel layout              : L R
    Sampling rate               : 44.1 kHz
    Frame rate                  : 43.066 FPS (1024 SPF)
    Compression mode            : Lossy
    Stream size                 : 122 MiB (4%)
    Language                    : Chinese
    Default                     : Yes
    Forced                      : No
    Audio #2
    ID                          : 3
    Format                      : AAC LC
    Format/Info                 : Advanced Audio Codec Low Complexity
    Codec ID                    : A_AAC-2
    Duration                    : 1 h 30 min
    Bit rate                    : 192 kb/s
    Channel(s)                  : 2 channels
    Channel layout              : L R
    Sampling rate               : 44.1 kHz
    Frame rate                  : 43.066 FPS (1024 SPF)
    Compression mode            : Lossy
    Stream size                 : 122 MiB (4%)
    Language                    : Chinese
    Default                     : No
    Forced                      : No
    Audio #3
    ID                          : 4
    Format                      : AC-3
    Format/Info                 : Audio Coding 3
    Commercial name             : Dolby Digital
    Codec ID                    : A_AC3
    Duration                    : 1 h 30 min
    Bit rate mode               : Constant
    Bit rate                    : 320 kb/s
    Channel(s)                  : 2 channels
    Channel layout              : L R
    Sampling rate               : 48.0 kHz
    Frame rate                  : 31.250 FPS (1536 SPF)
    Compression mode            : Lossy
    Stream size                 : 207 MiB (7%)
    Language                    : Vietnamese
    Service kind                : Complete Main
    Default                     : Yes
    Forced                      : No
    Audio #4
    ID                          : 5
    Format                      : AAC LC
    Format/Info                 : Advanced Audio Codec Low Complexity
    Codec ID                    : A_AAC-2
    Duration                    : 1 h 30 min
    Bit rate                    : 129 kb/s
    Channel(s)                  : 2 channels
    Channel layout              : L R
    Sampling rate               : 48.0 kHz
    Frame rate                  : 46.875 FPS (1024 SPF)
    Compression mode            : Lossy
    Stream size                 : 83.0 MiB (3%)
    Language                    : Vietnamese
    Default                     : Yes
    Forced                      : No
    Text #1
    ID                          : 6
    Format                      : UTF-8
    Codec ID                    : S_TEXT/UTF8
    Codec ID/Info               : UTF-8 Plain Text
    Duration                    : 1 h 26 min
    Bit rate                    : 34 b/s
    Count of elements           : 792
    Stream size                 : 21.6 KiB (0%)
    Language                    : English
    Default                     : No
    Forced                      : No
    Text #2
    ID                          : 7
    Format                      : UTF-8
    Codec ID                    : S_TEXT/UTF8
    Codec ID/Info               : UTF-8 Plain Text
    Duration                    : 1 h 26 min
    Bit rate                    : 49 b/s
    Count of elements           : 804
    Stream size                 : 31.2 KiB (0%)
    Language                    : Vietnamese
    Default                     : No
    Forced                      : No
    Text #3
    ID                          : 8
    Format                      : ASS
    Codec ID                    : S_TEXT/ASS
    Codec ID/Info               : Advanced Sub Station Alpha
    Duration                    : 1 h 26 min
    Bit rate                    : 70 b/s
    Count of elements           : 791
    Compression mode            : Lossless
    Stream size                 : 44.2 KiB (0%)
    Language                    : Vietnamese
    Default                     : Yes
    Forced                      : No
    

    Nhấn nút Cảm ơn (dưới chân bài) để thấy link!

     

Chia sẻ trang này